DNS SERVER AENDERNum der staatlichen Zensur zu umgehen. Sollten wir von eurem Provider geseprrt werden, nutzt den TOR BROWSER oder ändert euren DNS SERVER.

Filmwünsche können bei uns im Forum abgegeben werden

Wir Speichern Nicht




 
 
 
Top Releases
Das.Leben.ist.ein.Fest.2017....
Central.Intelligence.EXTENDE...
Wind.River.2017.German.AC3.D...
Wonder.Wheel.2017.GERMAN.720...
Wonder.Wheel.2017.German.DL....
Die.Verlegerin.2017.German.D...
Wonder.Wheel.2017.MULTi.COMP...
Peter.Hase.2018.German.AC3D....
Peter.Hase.2018.German.AC3D....
Nerve.2016.German.AC3.DL.108...

Cinedubs
Ready.Player.One.German.DL.A...
Ready.Player.One.German.DL.A...
Rampage.2018.German.AC3D.DL....
Rampage.2018.German.AC3D.DL....
Tomb.Raider.2018.3D.HSBS.Ger...
Tomb.Raider.2018.3D.HOU.Germ...
Pacific.Rim.2.Uprising.3D.HO...
Pacific.Rim.2.Uprising.3D.HS...
Pacific.Rim.2.Uprising.Germa...
Pacific.Rim.2.Uprising.Germa...

Neuerscheinungen 2017-18
Wahrheit.oder.Pflicht.2018.G...
Die.gnadenlosen.Vier.Posse.f...
Die.Wall.Street.Verschwoerun...
Die.Wall.Street.Verschwoerun...
Die.Wall.Street.Verschwoerun...
The.Lodgers.2017.MULTI.COMPL...
Hilfe.ich.hab.meine.Eltern.g...
Hilfe.Ich.hab.meine.Eltern.g...
Hilfe.Ich.habe.meine.Eltern....
Stephanie.-.Das.Boese.in.ihr...

XXX
HollyRandall.18.05.22.Ivy.Wo...
MeloneChallenge.18.06.12.Wen...
MetArtX.18.06.12.Melody.Wyld...
TheLifeErotic.18.06.12.Kate....
PornMegaLoad.18.06.11.Whitne...
LaCochonne.18.06.12.Sonya.Du...
HollyRandall.18.06.05.Mona.R...
GrandpasFuckTeens.18.06.12.L...
PornMegaLoad.18.06.11.Skye.S...
PublicPickUps.18.06.12.Rosse...
WildOnCam.18.06.12.Tori.Avan...
PureTaboo.18.06.12.Kendra.Sp...
ClubSeventeen.18.06.12.Dunya...
CzechCasting.18.06.11.Johank...
AmateurCFNM.18.06.12.Lexi.Ry...
ImmoralLive.18.06.12.Kesha.O...
BigButtsLikeItBig.18.06.12.A...
WildOnCam.18.06.12.Dolly.Lei...
Hegre.18.06.12.Grace.Dildo.D...
BrazzersExxtra.18.06.12.Laur...

3D
Zombies.Ueberlebe.die.Untote...
Der.Dschungel.Der.Zauber.ein...
Penthouse.Presents.Sexy.Sing...
The.LEGO.Ninjago.Movie.3D.20...
Zombies.Ueberlebe.die.Untote...
Norwegen.3D.2013.GERMAN.DL.D...
Norwegen.3D.2013.GERMAN.DOKU...
Jumanji.Willkommen.im.Dschun...
Jumanji.Welcome.To.The.Jungl...
Abraham.Lincoln.Vampire.Hunt...
Norwegen.3D.2013.MULTi.COMPL...
Star.Wars.Episode.VIII.Die.l...
Star.Wars.Episode.VIII.Die.l...
Star.Wars.Episode.VIII.Die.l...
Jumanji.Welcome.To.The.Jungl...

Old_Stuff
Weissensee.S03.2015.GERMAN.C...
Weissensee.S01+S02.2010.GERM...
Die.Unglaublichen.-.The.Incr...
Der.grosse.Trick.1978.German...
Sully.2016.MULTi.COMPLETE.BL...
Tremors.3.Die.neue.Brut.2001...
Die.Indianer.von.Cleveland.2...
Dealt.2017.1080p.AMZN.WEB-DL...
Dealt.2017.720p.AMZN.WEB-DL....
Roter.Staub.aka.The.Brave.On...
Roter.Staub.aka.The.Brave.On...
Magic.in.the.Moonlight.2014....
The.LEGO.Ninjago.Movie.2017....
Zeit.der.Zaertlichkeit.1983....
Zeit.der.Zaertlichkeit.1983....

Filme
The.Royals.2015.S04.German.D...
Marvels.Runaways.S01.German....
The.Good.Fight.S02.German.DD...
The.Good.Fight.S02.German.DD...
Blindspot.S03.German.DL.DUBB...
Excision.2012.German.AC3.DL....
Stand.and.Deliver.1988.Germa...
Criminal.Squad.EXTENDED.2018...
The.Stranger.Within.-.Gefäh...
Die.Geier.warten.schon.1973....
The.Sea.of.Trees.2015.German...
Conan.2011.German.Dubbed.DTS...
Flammen.am.Horizont.aka.Wron...
Apollo.13.1995.German.DTS.DL...
Central.Intelligence.2016.UN...
Der.Herr.der.Ringe.-.Die.zwe...
Der.Babadook.2014.German.DL....
Der.Babadook.2014.German.DL....
18.Stunden.bis.zur.Ewigkeit....
18.Stunden.bis.zur.Ewigkeit....
Das.Jerico.Projekt.Im.Kopf.d...
Die.letzten.Gluehwuermchen.1...
L.A.Confidential.REMASTERED....
Der.Hobbit.-.Eine.unerwartet...

 
 
At.Night.I.Fly.Images.from.New.Folsom.2011.German.DL.1080p.BluRay.x264-DESPiTE
Jahr: 2011
Genre: Dokumentation
Sprache: Deutsch DTS | Englisch DTS
Laufzeit: 1h 33mn
Bitrate: 10.1 Mbps
Format: MKV
Größe: 6.56 GiB
Release:

Beschreibung:

Im staatlichen New Folsom Hochsicherheitsgefängnis von Kalifornien sitzen die härtesten der schweren Jungs ihre dazumeist mehrfachen lebenslänglichen Strafen ab, wobei dort lebenslänglich tatsächlich Einsperren bis zum Tod bedeutet. Im Knast regieren Rassismus und Gewalt, niemand ist auf Dauer seines Lebens sicher. Noch schlimmer sind nur Eintönigkeit und Aussichtslosigkeit des Daseins. Deshalb hat jeder der Gefangenen so seine Methoden, einen klaren Kopf zu behalten. Nicht die schlechteste davon heißt davon heißt Kunst.



Complete name                            : despite-at.night.i.fly.1080p.mkv
Format                                   : Matroska
Format version                           : Version 2
File size                                : 6.56 GiB
Duration                                 : 1h 33mn
Overall bit rate                         : 10.1 Mbps
Movie name                               : At Night I Fly - Images from New Folsom (2011)
Encoded date                             : UTC 2013-05-23 13:18:49
Writing application                      : mkvmerge v6.2.0 ('Promised Land') built on Apr 28 2013 12:22:01
Writing library                          : libebml v1.3.0 + libmatroska v1.4.0

Video
ID                                       : 1
Format                                   : AVC
Format/Info                              : Advanced Video Codec
Format profile                           : High@L4.1
Format settings, CABAC                   : Yes
Format settings, ReFrames                : 4 frames
Codec ID                                 : V_MPEG4/ISO/AVC
Duration                                 : 1h 33mn
Bit rate                                 : 8 546 Kbps
Width                                    : 1 920 pixels
Height                                   : 1 080 pixels
Display aspect ratio                     : 16:9
Frame rate mode                          : Constant
Frame rate                               : 23.976 fps
Color space                              : YUV
Chroma subsampling                       : 4:2:0
Bit depth                                : 8 bits
Scan type                                : Progressive
Bits/(Pixel*Frame)                       : 0.172
Stream size                              : 5.43 GiB (83%)
Title                                    : 1080p
Writing library                          : x264 core 133 r2334 a3ac64b
Encoding settings                        : cabac=1 / ref=4 / deblock=1:-1:-1 / analyse=0x3:0x133 / me=umh / subme=7 / psy=1 / psy_rd=1.00:0.15 / mixed_ref=1 / me_range=16 / chroma_me=1 / trellis=1 / 8x8dct=1 / cqm=0 / deadzone=21,11 / fast_pskip=0 / chroma_qp_offset=-3 / threads=12 / lookahead_threads=2 / sliced_threads=0 / nr=0 / decimate=1 / interlaced=0 / bluray_compat=0 / constrained_intra=0 / bframes=3 / b_pyramid=2 / b_adapt=1 / b_bias=0 / direct=3 / weightb=1 / open_gop=0 / weightp=2 / keyint=240 / keyint_min=23 / scenecut=40 / intra_refresh=0 / rc_lookahead=40 / rc=2pass / mbtree=1 / bitrate=8546 / ratetol=1.0 / qcomp=0.60 / qpmin=0 / qpmax=69 / qpstep=4 / cplxblur=20.0 / qblur=0.5 / vbv_maxrate=62500 / vbv_bufsize=78125 / nal_hrd=none / ip_ratio=1.40 / aq=1:1.00
Default                                  : Yes
Forced                                   : No

Audio #1
ID                                       : 2
Format                                   : DTS
Format/Info                              : Digital Theater Systems
Mode                                     : 16
Format settings, Endianness              : Big
Codec ID                                 : A_DTS
Duration                                 : 1h 33mn
Bit rate mode                            : Constant
Bit rate                                 : 768 Kbps
Channel(s)                               : 2 channels
Channel positions                        : Front: L R
Sampling rate                            : 48.0 KHz
Bit depth                                : 24 bits
Compression mode                         : Lossy
Stream size                              : 511 MiB (8%)
Title                                    : DTS
Language                                 : German
Default                                  : Yes
Forced                                   : No

Audio #2
ID                                       : 3
Format                                   : DTS
Format/Info                              : Digital Theater Systems
Mode                                     : 16
Format settings, Endianness              : Big
Codec ID                                 : A_DTS
Duration                                 : 1h 33mn
Bit rate mode                            : Constant
Bit rate                                 : 768 Kbps
Channel(s)                               : 2 channels
Channel positions                        : Front: L R
Sampling rate                            : 48.0 KHz
Bit depth                                : 24 bits
Compression mode                         : Lossy
Stream size                              : 511 MiB (8%)
Title                                    : DTS
Language                                 : English
Default                                  : No
Forced                                   : No


Download:
Share Online Share OnlineShare OnlineShare Online
 

Kommentare