Filmwünsche können bei uns im Forum abgegeben werden

Wir Speichern Nicht




 
 
 
Top Releases
Schloss.aus.Glas.2017.German...
Gods.Own.Country.2017.German...
Cafe.Belgica.2016.German.DL....
Happy.Death.Day.2017.German....
Happy.Death.Day.2017.German....
Happy.Death.Day.2017.German....
Valerian.Die.Stadt.der.tause...
Goodbye.Christopher.Robin.20...
Goodbye.Christopher.Robin.20...
Daddys.Home.Ein.Vater.zu.vie...

Cinedubs
Golden.Exits.2018.German.AC3...
Golden.Exits.2018.German.AC3...
Pitch.Perfect.3.German.DL.AC...
Pitch.Perfect.3.German.DL.AC...
Three.Billboards.Outside.Ebb...
Three.Billboards.Outside.Ebb...
Darkland.2017.German.AC3D.WE...
Darkland.2017.German.AC3D.WE...
Justice.League.German.MD.DL....
Justice.League.German.MD.DL....

Neuerscheinungen 2017-18
Der.27.Tag.1957.German.DL.10...
Der.27.Tag.1957.German.720p....
Hilfe.unser.Lehrer.ist.ein.F...
Die.Glocken.von.St.Marien.19...
Die.Glocken.von.St.Marien.19...
Farinelli.der.Kastrat.1994.G...
Farinelli.der.Kastrat.1994.G...
Hilfe.unser.Lehrer.ist.ein.F...
Hilfe.unser.Lehrer.ist.ein.F...
Girls.Night.Out.2017.GERMAN....

XXX
HeavyOnHotties.E212.Annabell...
HollyRandall.18.02.06.Meliss...
GloryHoleSecrets.18.02.07.So...
InTheCrack.E1374.Shona.River...
Holed.18.02.08.Evelina.Darli...
Hustler.18.02.07.Valentina.B...
ExxxtraSmall.18.02.08.Gracie...
FemJoy.18.02.08.Esther.K.Laz...
FaceFucking.16.01.14.Lily.Lo...
FaceFucking.15.12.03.Lily.Kr...
HeavyOnHotties.E207.Kira.Que...
DogHouseDigital.18.02.07.Kat...
ElegantAnal.18.02.07.Alyssia...
AbbyWinters.18.02.06.Anais.V...
GirlsOutWest.18.02.07.Violet...
FamilyLust.18.02.06.Dani.Dar...
FakeAgent.18.02.08.Scyley.Ja...
FirstAnalQuest.18.02.06.Kris...
GapeLand.18.02.06.Sarah.Sult...
FullyClothedSex.18.02.08.How...

3D
Blade.Runner.2049.3D.2017.MU...
Blade.Runner.2049.3D.2017.Ge...
The.Crucifixion.3D.2017.Germ...
The.Crucifixion.3D.2017.MULT...
The.Lego.Ninjago.Movie.2017....
The.Lego.Ninjago.Movie.2017....
Spacewalker.2017.3D.HSBS.Ger...
Spacewalker.2017.3D.HOU.Germ...
Blade.Runner.2049.2017.3D.MU...
Geostorm.3D.2017.German.DL.1...
Geostorm.3D.2017.HSBS.German...
Geostorm.3D.2017.HOU.German....
Blade.Runner.2049.3D.HSBS.Ge...
Blade.Runner.2049.3D.HOU.Ger...
Geostorm.3D.2017.multi.compl...

Old_Stuff
Kevin.-.Allein.zu.Haus.4K.Re...
American.Sniper.2014.MULTi.C...
Hana-bi.Feuerblume.1997.Germ...
Memphis.Belle.1990.German.DL...
Im.Schatten.des.Mondes.Germa...
Tomb.Raider.2001.DUAL.COMPLE...
Tomb.Raider.Die.Wiege.des.Le...
Party.Animals.3.German.AC3.7...
The.Rocky.Horror.Picture.Sho...
Die.Fliege.1986.German.DTS.1...
Mimic.2.2001.German.DD5.1D.D...
The.Tournament.UNCUT.2009.Ge...
Dr.House.S08.German.720p.Blu...
Dr.House.S07.German.720p.Blu...
Dr.House.S06.German.720p.Blu...

Filme
Dead.Mans.Shoes.2004.German....
Legend.of.Tarzan.2016.German...
American.Assassin.2017.Germa...
Die.Mumie.Das.Grabmal.des.Dr...
Die.Mumie.1999.German.DL.216...
Die.Mumie.Das.Grabmal.des.Dr...
Split.2016.GERMAN.DL.2160p.U...
Die.Glocken.von.St.Marien.19...
Serenity.2005.German.DL.2160...
Like.Mike.2002.German.AC3D.5...
Flucht.in.die.Zukunft.1979.G...
Ferris.macht.blau.1986.AC3D....
Designated.Survivor.S01.COMP...
Riverdale.S02.German.Dubbed....
Die.Unfassbaren.2.2016.GERMA...
Das.Parfuem.der.Manon.XXX.20...
Girls.Night.Out.2017.GERMAN....
Ein.Schweinchen.namens.Babe....
Marvels.The.Defenders.S01.CO...
Gangland.Cops.unter.Beschuss...
Hacksaw.Ridge.2016.GERMAN.DL...
Mardi.Gras.Spring.Break.Unra...
Die.Schluempfe.2.2013.German...
Snowfall.S01.GERMAN.DUBBED.D...

 
 
Jigsaw.2017.German.AC3D.DL.720p.BluRay.x264-BluRHD
Jahr: 2017
Genre: Horror, Thriller
Sprache: Deutsch AC3 | Englisch AC3
Laufzeit: 1h 31mn
Bitrate: 6 739 Kbps
Format: MKV
Größe: 4.33 GiB
Release:

Beschreibung:

Seit einem Jahrzehnt ist der psychopathische Killer John Kramer alias Jigsaw (Tobin Bell) tot – oder zumindest wird er für tot gehalten. Denn plötzlich tauchen in der ganzen Stadt zahlreiche Leichen auf, die so grausam entstellt und verstümmelt sind, dass es eigentlich nur das Werk von Jigsaw sein kann. Ist Kramer also doch gar nicht tot? Oder setzt einer von Jigsaws Schülern das Werk seines Meisters fort? Während Ermittler wie die Detectives Halloran (Callum Keith Rennie) und Hunt (Clé Bennett) mit Hochdruck nach dem Täter fahnden und sich bald gegenseitig verdächtigen, hinter den Morden zu stecken, wacht eine Gruppe von Fremden in einem schummrigen Raum irgendwo in der Stadt auf. Sie sind in einer von Jigsaws sadistischen Fallen gefangen und müssen zahlreiche blutige Prüfungen bestehen und ihre schlimmsten Sünden gestehen, um jemals wieder ihre Freiheit zurückzuerlangen. Die Folterspiele haben wieder begonnen...



Complete name                            : bhd-jigs-720p.mkv
Format                                   : Matroska
Format version                           : Version 2
File size                                : 4.33 GiB
Duration                                 : 1h 31mn
Overall bit rate                         : 6 739 Kbps
Encoded date                             : UTC 2018-01-16 05:44:53
Writing application                      : mkvmerge v4.5.0 ('Speed of Light') gebaut am Feb  1 2011 02:10:32
Writing library                          : libebml v1.2.0 + libmatroska v1.1.0

Video
ID                                       : 1
Format                                   : AVC
Format/Info                              : Advanced Video Codec
Format profile                           : High@L4.1
Format settings, CABAC                   : Yes
Format settings, ReFrames                : 5 frames
Codec ID                                 : V_MPEG4/ISO/AVC
Duration                                 : 1h 31mn
Bit rate                                 : 6 164 Kbps
Width                                    : 1 280 pixels
Height                                   : 536 pixels
Display aspect ratio                     : 2.40:1
Frame rate mode                          : Constant
Frame rate                               : 23.976 fps
Color space                              : YUV
Chroma subsampling                       : 4:2:0
Bit depth                                : 8 bits
Scan type                                : Progressive
Bits/(Pixel*Frame)                       : 0.375
Stream size                              : 3.87 GiB (89%)
Writing library                          : x264 core 152 r2851 ba24899
Encoding settings                        : cabac=1 / ref=5 / deblock=1:0:0 / analyse=0x3:0x133 / me=umh / subme=7 / psy=1 / psy_rd=1.00:0.00 / mixed_ref=1 / me_range=16 / chroma_me=1 / trellis=1 / 8x8dct=1 / cqm=0 / deadzone=21,11 / fast_pskip=0 / chroma_qp_offset=-2 / threads=17 / lookahead_threads=2 / sliced_threads=0 / nr=0 / decimate=1 / interlaced=0 / bluray_compat=0 / constrained_intra=0 / bframes=3 / b_pyramid=2 / b_adapt=1 / b_bias=0 / direct=1 / weightb=1 / open_gop=0 / weightp=2 / keyint=250 / keyint_min=23 / scenecut=40 / intra_refresh=0 / rc_lookahead=40 / rc=2pass / mbtree=1 / bitrate=6164 / ratetol=1.0 / qcomp=0.60 / qpmin=0 / qpmax=69 / qpstep=4 / cplxblur=20.0 / qblur=0.5 / ip_ratio=1.40 / aq=1:1.00
Language                                 : English
Default                                  : Yes
Forced                                   : No

Audio #1
ID                                       : 2
Format                                   : AC-3
Format/Info                              : Audio Coding 3
Mode extension                           : CM (complete main)
Format settings, Endianness              : Big
Codec ID                                 : A_AC3
Duration                                 : 1h 31mn
Bit rate mode                            : Constant
Bit rate                                 : 192 Kbps
Channel(s)                               : 2 channels
Channel positions                        : Front: L R
Sampling rate                            : 48.0 KHz
Bit depth                                : 16 bits
Compression mode                         : Lossy
Stream size                              : 126 MiB (3%)
Title                                    : German
Language                                 : German
Default                                  : Yes
Forced                                   : No

Audio #2
ID                                       : 3
Format                                   : AC-3
Format/Info                              : Audio Coding 3
Mode extension                           : CM (complete main)
Format settings, Endianness              : Big
Codec ID                                 : A_AC3
Duration                                 : 1h 31mn
Bit rate mode                            : Constant
Bit rate                                 : 384 Kbps
Channel(s)                               : 6 channels
Channel positions                        : Front: L C R, Side: L R, LFE
Sampling rate                            : 48.0 KHz
Bit depth                                : 16 bits
Compression mode                         : Lossy
Stream size                              : 253 MiB (6%)
Title                                    : English
Language                                 : English
Default                                  : No
Forced                                   : No


Download:
Share Online Share OnlineShare OnlineShare Online
 

Kommentare

  1. Geschrieben am 16. January 2018, 19:21 Uhr von Duster · #

    AC3 2.0 @ 192kbps (Mic @ SPECTRE)

    / wo steht das?
  2. Geschrieben am 17. January 2018, 20:20 Uhr von Chris · #

    Kann den Mic Ton bestätigen. Fehlt leider in der Angabe.