DNS SERVER AENDERNum der staatlichen Zensur zu umgehen. Sollten wir von eurem Provider geseprrt werden, nutzt den TOR BROWSER oder ändert euren DNS SERVER.

Filmwünsche können bei uns im Forum abgegeben werden

Wir Speichern Nicht




 
 
 
Top Releases
Your.Name.German.DL.1080p.Bl...
Your.Name.Gestern.heute.und....
Mr.Church.2016.German.DL.AC3...
Mr.Church.2016.German.DL.AC3...
Red.Sparrow.2018.German.DL.A...
Wunder.2017.MULTI.COMPLETE.B...
Der.andere.Liebhaber.2017.MU...
Hands.of.Stone.Faeuste.aus.S...
Rogue.One.A.Star.Wars.Story....
The.Salesman.2016.German.AC3...

Cinedubs
Pacific.Rim.2.Uprising.Germa...
Pacific.Rim.2.Uprising.Germa...
Feinde.Hostiles.German.DL.AC...
Feinde.Hostiles.German.DL.AC...
Renegades.German.AC3MD.DL.10...
Renegades.German.AC3MD.DL.72...
Jawbone.German.DL.AC3.Dubbed...
Jawbone.German.DL.AC3.Dubbed...
Das.ist.erst.der.Anfang.Germ...
Das.ist.erst.der.Anfang.Germ...

Neuerscheinungen 2017-18
Havenhurst.2016.German.1080p...
Havenhurst.2016.German.720p....
Havenhurst.2016.German.DL.10...
Havenhurst.2016.DUAL.COMPLET...
Fifty.Shades.of.Grey.Befreit...
Ausloeschung.2018.German.AC3...
Ausloeschung.2018.German.AC3...
Bullyparade.Der.Film.2017.Ge...
Bullyparade.Der.Film.2017.Ge...
Cargo.2017.German.Dubbed.DL....

XXX
RydenArmani.17.07.26.Cotton....
TheLifeErotic.18.03.16.Maari...
Throated.18.03.16.Anna.De.Vi...
RydenArmani.18.02.03.Sweethe...
Spizoo.18.03.17.Samantha.Ron...
PrivateSociety.18.03.19.Bren...
PublicPickUps.18.03.17.Xiann...
SpyFam.18.03.19.Emily.Willis...
TheWhiteBoxxx.18.03.17.Natal...
Spizoo.18.03.21.Maxim.Law.Vs...
RodneyMoore.18.03.13.Kat.Lix...
PropertySex.18.03.16.Lily.La...
ThirdMovies.My.Moms.Dark.Sec...
RealWifeStories.18.03.20.Kay...
RydenArmani.17.12.20.Christm...
PublicAgent.18.03.20.Dayana....
TheLifeErotic.18.03.18.Layla...
RydenArmani.17.11.12.Anal.Pl...
RodneyMoore.18.03.14.Lindy.L...
RydenArmani.17.10.07.Wednesd...

3D
Zombies.Ueberlebe.die.Untote...
Norwegen.3D.2013.GERMAN.DL.D...
Norwegen.3D.2013.GERMAN.DOKU...
Jumanji.Willkommen.im.Dschun...
Jumanji.Welcome.To.The.Jungl...
Abraham.Lincoln.Vampire.Hunt...
Norwegen.3D.2013.MULTi.COMPL...
Star.Wars.Episode.VIII.Die.l...
Star.Wars.Episode.VIII.Die.l...
Star.Wars.Episode.VIII.Die.l...
Jumanji.Welcome.To.The.Jungl...
Star.Wars.The.Last.Jedi.2017...
Final.Storm.Der.Untergang.de...
Final.Storm.Der.Untergang.de...
Jumanji.Willkommen.im.Dschun...

Old_Stuff
Zeit.der.Zaertlichkeit.1983....
Zeit.der.Zaertlichkeit.1983....
Regular.Show.S01.1080p.BluRa...
Ostfriesisch.fuer.Anfaenger....
Planet.der.Affen.Prevolution...
Final.Fantasy.VII.Advent.Chi...
City.Slickers.2.1994.German....
R.I.P.D.Rest.in.Peace.Depart...
The.Hornets.Nest.2014.LIMITE...
Korengal.2014.DOCU.1080p.Blu...
The.Transporter.Refueled.201...
Transporter.3.2008.DUAL.COMP...
Transporter.The.Mission.DC.2...
Transporter.2002.DUAL.COMPLE...
Am.gruenen.Rand.der.Welt.Far...

Filme
Ein.ganz.verrueckter.Freitag...
Patrouillenboot.PT.109.1963....
Nina.2016.German.DL.1080p.Bl...
The.Quest.Die.Serie.S03.DUAL...
Assault.on.Precinct.13.-.Ans...
MotoGP.Moto2.Moto3.Saison.20...
MotoGP.Moto2.Moto3.Saison.20...
Irre.sind.maennlich.German.1...
Irre.sind.maennlich.2014.Ger...
Tapeheads.-.Verrueckt.auf.Vi...
Aus.dem.Nichts.2017.German.1...
Der.Hobbit.Die.Schlacht.Der....
Letters.From.Iwo.Jima.2006.M...
Shameless.US.S07D01+2.DUAL.C...
Meine.Stiefmutter.ist.ein.Al...
Harold.und.Kumar.2.Flucht.au...
127.Hours.2010.German.AC3.DL...
Indiana.Jones.Jaeger.des.ver...
Atemlos.Gefaehrliche.Wahrhei...
Charleston.Zwei.Faeuste.raeu...
Charleston.Zwei.Faeuste.raeu...
Der.Pakt.der.Woelfe.DC.2001....
Oceans.Eleven.Open.Matte.200...
Extreme.Ops.2002.German.DL.A...

 
 
Day.of.the.Animals.1977.German.720p.BluRay.x264-WOMBAT
Jahr: 1977
Genre: Horror, Thriller
Sprache: Deutsch AC3
Laufzeit: 1h 37mn
Bitrate: 2 572 Kbps
Format: MKV
Größe: 1.75 GiB
Release:

Beschreibung:

Die Beschädigung der Ozonschicht hat hier äußerst unangenehme Folgen für die Tierwelt einer amerikanischen Sierra. Alles was über 5000 Fuß so kreucht und fleucht, wird von dem Effekt beeinflußt und entwickelt bedenklich aggressive Tendenzen. Schlecht für eine Wandergruppe, die man kurz vor der Quarantäne dort noch per Hubschrauber abgesetzt hat.



Complete name                            : w-dota-720p.mkv
Format                                   : Matroska
Format version                           : Version 2
File size                                : 1.75 GiB
Duration                                 : 1h 37mn
Overall bit rate                         : 2 572 Kbps
Encoded date                             : UTC 2018-01-13 18:15:08
Writing application                      : mkvmerge v3.3.0 ('Language') gebaut am Mar 24 2010 14:59:24
Writing library                          : libebml v0.8.0 + libmatroska v0.9.0

Video
ID                                       : 1
Format                                   : AVC
Format/Info                              : Advanced Video Codec
Format profile                           : High@L4.1
Format settings, CABAC                   : Yes
Format settings, ReFrames                : 5 frames
Codec ID                                 : V_MPEG4/ISO/AVC
Duration                                 : 1h 37mn
Bit rate                                 : 2 073 Kbps
Width                                    : 1 280 pixels
Height                                   : 544 pixels
Display aspect ratio                     : 2.35:1
Frame rate mode                          : Constant
Frame rate                               : 23.976 fps
Color space                              : YUV
Chroma subsampling                       : 4:2:0
Bit depth                                : 8 bits
Scan type                                : Progressive
Bits/(Pixel*Frame)                       : 0.124
Stream size                              : 1.41 GiB (81%)
Writing library                          : x264 core 155 r2893 b00bcaf
Encoding settings                        : cabac=1 / ref=5 / deblock=1:0:0 / analyse=0x3:0x113 / me=umh / subme=7 / psy=1 / psy_rd=1.00:0.00 / mixed_ref=1 / me_range=16 / chroma_me=1 / trellis=1 / 8x8dct=1 / cqm=0 / deadzone=21,11 / fast_pskip=0 / chroma_qp_offset=-2 / threads=17 / lookahead_threads=2 / sliced_threads=0 / nr=0 / decimate=1 / interlaced=0 / bluray_compat=0 / constrained_intra=0 / bframes=3 / b_pyramid=2 / b_adapt=1 / b_bias=0 / direct=1 / weightb=1 / open_gop=0 / weightp=2 / keyint=250 / keyint_min=23 / scenecut=40 / intra_refresh=0 / rc_lookahead=40 / rc=crf / mbtree=1 / crf=20.0 / qcomp=0.60 / qpmin=0 / qpmax=69 / qpstep=4 / ip_ratio=1.40 / aq=1:1.00
Language                                 : German
Default                                  : No
Forced                                   : No

Audio
ID                                       : 2
Format                                   : AC-3
Format/Info                              : Audio Coding 3
Mode extension                           : CM (complete main)
Format settings, Endianness              : Big
Codec ID                                 : A_AC3
Duration                                 : 1h 37mn
Bit rate mode                            : Constant
Bit rate                                 : 448 Kbps
Channel(s)                               : 6 channels
Channel positions                        : Front: L C R, Side: L R, LFE
Sampling rate                            : 48.0 KHz
Bit depth                                : 16 bits
Compression mode                         : Lossy
Stream size                              : 313 MiB (17%)
Title                                    : German
Language                                 : German
Default                                  : Yes
Forced                                   : No





Download:
Share Online Share OnlineShare OnlineShare Online
 

Kommentare