Filecrypt zeigt vereinzelt Files als "n/a". Die Downloads sind trotzdem komplett.

DNS SERVER AENDERNum der staatlichen Zensur zu umgehen. Sollten wir von eurem Provider geseprrt werden, nutzt den TOR BROWSER oder ändert euren DNS SERVER.

Filmwünsche können bei uns im Forum abgegeben werden

Wir Speichern Nicht




 
 
 
Top Releases
Le.Jeu.Nichts.zu.verbergen.2...
Le.Jeu.Nichts.zu.verbergen.2...
Cam.2018.German.DL.1080p.WEB...
Cam.2018.German.DL.720p.WEB....
Teen.Titans.Go.To.the.Movies...
The.Ballad.of.Buster.Scruggs...
Teen.Titans.Go.To.the.Movies...
The.Ballad.of.Buster.Scruggs...
Logan.The.Wolverine.2017.NOI...
Mandy.2018.German.DL.1080p.B...

Cinedubs
Christopher.Robin.German.DL....
Christopher.Robin.German.DL....
A.Star.Is.Born.German.DL.AC3...
A.Star.Is.Born.German.DL.AC3...
Mission.Impossible.Fallout.G...
Mission.Impossible.Fallout.G...
Sicario.2.2018.German.DL.AC3...
Juliet.Naked.2018.GERMAN.DL....
Juliet.Naked.2018.GERMAN.DL....
10x10.2018.German.AC3D.DL.10...

Neuerscheinungen 2017-18
Boarding.School.2018.COMPLET...
Immortal.Wars.Nur.der.Staerk...
Beautiful.People.2014.German...
Mission.Yeti.2017.German.DL....
Mission.Yeti.2017.German.720...
Boarding.School.2018.German....
Boarding.School.2018.German....
10x10.2018.GERMAN.DL.1080p.B...
10x10.2018.GERMAN.720p.BluRa...
The.Marine.6.Close.Quarters....

XXX
NetVideoGirls.18.10.23.Janey...
NHLPCentral.18.06.21.Brook.L...
LustyGrandmas.18.03.22.Marsh...
POVPornstars.18.10.30.Lila.M...
POVLife.18.10.29.Skylar.Vale...
NetGirl.18.10.17.Gemma.And.A...
NewSensations.18.10.29.Angel...
Nubiles.18.10.29.Cleo.Mijare...
OldYoungLesbianLove.18.10.29...
NHLPCentral.18.06.14.Honour....
NubileFilms.18.10.29.Riley.S...
LustyGrandmas.18.04.02.Sila....
PlayboyPlus.18.10.29.Jenessa...
Old-n-Young.18.10.27.Blue.Sk...
NewSensations.18.10.31.Emily...
OnlyBlowJob.18.10.04.Rose.XX...
PlayboyPlus.18.10.28.Playmat...
LustyGrandmas.18.04.08.Viol....
PixAndVideo.18.10.29.Marica....
Passion-HD.18.10.31.Megan.Wi...

3D
Die.Unglaublichen.2.2018.3D....
Skyscraper.3D.2018.MULTi.COM...
Ant-Man.And.The.Wasp.3D.2018...
Ant.Man.and.the.Wasp.3D.2018...
Die.Unglaublichen.2.3D.2018....
Die.Unglaublichen.2.2018.3D....
Die.Unglaublichen.2.2018.3D....
Sharknado.6.The.Last.One.3D....
Deep.Kleine.Helden.der.Tiefs...
Deep.3D.2017.MULTI.COMPLETE....
Detective.Dee.und.die.Legend...
Detective.Dee.und.die.Legend...
Skyscraper.3D.German.DL.AC3....
Ant-Man.and.the.Wasp.2018.3D...
Jurassic.World.Das.gefallene...

Old_Stuff
Detective.Dee.und.das.Geheim...
Detective.Dee.Und.Der.Fluch....
Ghost.Rider.Spirit.of.Vengea...
Species.IV.Das.Erwachen.2007...
Species.IV.Das.Erwachen.2007...
Hotel.Transsilvanien.2012.Ge...
The.Dead.2010.German.DL.1080...
The.Dead.2.India.2013.German...
Britney.Spears.Live.The.Femm...
Buffy.The.Vampire.Slayer.199...
IMAX.Ride.Around.The.World.2...
Schimanski.-.Duisburg.Ruhror...
Akte.X.S02.German.DTS.DL.108...
How.I.Met.Your.Mother.S02.Ge...
Akte.X.S01.German.DTS.DL.108...

Filme
Rocky.1976.German.DL.DTS.Dub...
Scorpion.King.Das.Buch.der.S...
Das.Geheimniss.von.Marrowbon...
Es.2017.German.DL.1080p.BluR...
Todesritt.nach.Jericho.2006....
Teen.Titans.Go.To.the.Movies...
Todesschuesse.am.Broadway.19...
Todeszug.nach.Yuma.2007.Germ...
Toedliche.Bekenntnisse.2001....
Hereditary.Das.Vermaechtnis....
Jigsaw.2017.German.DL.1080p....
The.Strangers.Opfernacht.UNR...
Toedlicher.Anruf.2008.German...
Toedlicher.Charme.1990.Germa...
Toedlicher.Irrtum.1970.Germa...
Tanz.der.Teufel.2.1987.Remas...
To.Save.a.Life.2009.German.D...
Clockers.1995.German.DL.1080...
Toedliche.Fragen.1990.German...
Toedliche.Umarmung.1979.Germ...
MotoGP.Moto2.Moto3.Saison.20...
Meerjungfrauen.kuessen.besse...
Meerjungfrauen.kuessen.besse...
Mondsuechtig.1987.German.DL....

 
 
Die.Wiege.der.Sonne.1993.German.DL.1080p.BluRay.x264-ETM
Jahr: 1993
Genre: Action, Drama
Sprache: Deutsch AC3 | Englisch AC3
Laufzeit: 2h 9mn
Bitrate: 8 783 Kbps
Format: MKV
Größe: 7.94 GiB
Release:

Beschreibung:

Es sieht aus wie ein ganz normaler Mord – auf der Party eines Konzerns wird eine junge Frau tot aufgefunden. Eigentlich ein Fall wie jeder andere – wenn nicht das Unternehmen eines der mächtigsten japanischen Kartelle wäre, wenn der Schauplatz der Verbrechen nicht in Amerikas High-Tech-Hauptstadt läge und, wenn nicht die Interessen der grossen Rüstungsfirmen betroffen wären. Für die beiden Sondereinsatz-Detektive der Polizei (Sean Connery und Wesley Snipes) stellt sich sehr schnell heraus: hier herrscht brutaler, erbarmungsloser Krieg. Hinter den feinen Stoffen der edlen Herren wird ein Spiel gespielt, das dreckiger ist als die Kämpfe in den Slums der Straßen. Ein Krieg, der alle Waffen einsetzt: von der ausgefeiltesten Elektronik bis hin zum einfachen Messer. Und eines ist klar: bei diesem Spiel überlebt nur einer …



Complete name                            : etm-dwds_1080p_x264.mkv
Format                                   : Matroska
Format version                           : Version 1
File size                                : 7.94 GiB
Duration                                 : 2h 9mn
Overall bit rate                         : 8 783 Kbps
Encoded date                             : UTC 2008-05-09 16:27:08
Writing application                      : mkvmerge v2.1.0 ('Another Place To Fall') built on Aug 19 2007 13:40:07
Writing library                          : libebml v0.7.7 + libmatroska v0.8.1

Video
ID                                       : 1
Format                                   : AVC
Format/Info                              : Advanced Video Codec
Format profile                           : Main@L5.1
Format settings, CABAC                   : Yes
Format settings, ReFrames                : 5 frames
Codec ID                                 : V_MPEG4/ISO/AVC
Duration                                 : 2h 9mn
Bit rate                                 : 7 500 Kbps
Width                                    : 1 920 pixels
Height                                   : 1 072 pixels
Display aspect ratio                     : 16:9
Frame rate mode                          : Constant
Frame rate                               : 23.976 fps
Color space                              : YUV
Chroma subsampling                       : 4:2:0
Bit depth                                : 8 bits
Scan type                                : Progressive
Bits/(Pixel*Frame)                       : 0.152
Stream size                              : 6.63 GiB (83%)
Writing library                          : x264 core 59 r819M 0414d78
Encoding settings                        : cabac=1 / ref=5 / deblock=1:1:1 / analyse=0x1:0 / me=dia / subme=7 / me-prepass=0 / brdo=1 / mixed_ref=1 / me_range=16 / chroma_me=1 / trellis=1 / 8x8dct=0 / cqm=0 / deadzone=21,11 / chroma_qp_offset=0 / threads=6 / nr=0 / decimate=1 / mbaff=0 / bframes=3 / b_pyramid=1 / b_adapt=1 / b_bias=0 / direct=3 / wpredb=1 / bime=1 / keyint=250 / keyint_min=25 / scenecut=40(pre) / rc=2pass / bitrate=7500 / ratetol=1.0 / rceq='blurCplx^(1-qComp)' / qcomp=1.00 / qpmin=10 / qpmax=51 / qpstep=4 / cplxblur=20.0 / qblur=0.5 / ip_ratio=1.40 / pb_ratio=1.30 / aq=2:1.00
Default                                  : Yes
Forced                                   : No

Audio #1
ID                                       : 2
Format                                   : AC-3
Format/Info                              : Audio Coding 3
Mode extension                           : CM (complete main)
Format settings, Endianness              : Big
Codec ID                                 : A_AC3
Duration                                 : 2h 9mn
Bit rate mode                            : Constant
Bit rate                                 : 640 Kbps
Channel(s)                               : 6 channels
Channel positions                        : Front: L C R, Side: L R, LFE
Sampling rate                            : 48.0 KHz
Bit depth                                : 16 bits
Compression mode                         : Lossy
Stream size                              : 592 MiB (7%)
Language                                 : English
Default                                  : Yes
Forced                                   : No

Audio #2
ID                                       : 3
Format                                   : AC-3
Format/Info                              : Audio Coding 3
Mode extension                           : CM (complete main)
Format settings, Endianness              : Big
Codec ID                                 : A_AC3
Duration                                 : 2h 9mn
Bit rate mode                            : Constant
Bit rate                                 : 640 Kbps
Channel(s)                               : 6 channels
Channel positions                        : Front: L C R, Side: L R, LFE
Sampling rate                            : 48.0 KHz
Bit depth                                : 16 bits
Compression mode                         : Lossy
Stream size                              : 592 MiB (7%)
Language                                 : German
Default                                  : No
Forced                                   : No


Download:
Share Online Share OnlineShare OnlineShare Online
 

Kommentare