DNS SERVER AENDERNum der staatlichen Zensur zu umgehen. Sollten wir von eurem Provider geseprrt werden, nutzt den TOR BROWSER oder ändert euren DNS SERVER.

Filmwünsche können bei uns im Forum abgegeben werden

Wir Speichern Nicht




 
 
 
Top Releases
Your.Name.German.DL.1080p.Bl...
Your.Name.Gestern.heute.und....
Mr.Church.2016.German.DL.AC3...
Mr.Church.2016.German.DL.AC3...
Red.Sparrow.2018.German.DL.A...
Wunder.2017.MULTI.COMPLETE.B...
Der.andere.Liebhaber.2017.MU...
Hands.of.Stone.Faeuste.aus.S...
Rogue.One.A.Star.Wars.Story....
The.Salesman.2016.German.AC3...

Cinedubs
Pacific.Rim.2.Uprising.Germa...
Pacific.Rim.2.Uprising.Germa...
Feinde.Hostiles.German.DL.AC...
Feinde.Hostiles.German.DL.AC...
Renegades.German.AC3MD.DL.10...
Renegades.German.AC3MD.DL.72...
Jawbone.German.DL.AC3.Dubbed...
Jawbone.German.DL.AC3.Dubbed...
Das.ist.erst.der.Anfang.Germ...
Das.ist.erst.der.Anfang.Germ...

Neuerscheinungen 2017-18
Havenhurst.2016.German.1080p...
Havenhurst.2016.German.720p....
Havenhurst.2016.German.DL.10...
Havenhurst.2016.DUAL.COMPLET...
Fifty.Shades.of.Grey.Befreit...
Ausloeschung.2018.German.AC3...
Ausloeschung.2018.German.AC3...
Bullyparade.Der.Film.2017.Ge...
Bullyparade.Der.Film.2017.Ge...
Cargo.2017.German.Dubbed.DL....

XXX
RydenArmani.17.07.26.Cotton....
TheLifeErotic.18.03.16.Maari...
Throated.18.03.16.Anna.De.Vi...
RydenArmani.18.02.03.Sweethe...
Spizoo.18.03.17.Samantha.Ron...
PrivateSociety.18.03.19.Bren...
PublicPickUps.18.03.17.Xiann...
SpyFam.18.03.19.Emily.Willis...
TheWhiteBoxxx.18.03.17.Natal...
Spizoo.18.03.21.Maxim.Law.Vs...
RodneyMoore.18.03.13.Kat.Lix...
PropertySex.18.03.16.Lily.La...
ThirdMovies.My.Moms.Dark.Sec...
RealWifeStories.18.03.20.Kay...
RydenArmani.17.12.20.Christm...
PublicAgent.18.03.20.Dayana....
TheLifeErotic.18.03.18.Layla...
RydenArmani.17.11.12.Anal.Pl...
RodneyMoore.18.03.14.Lindy.L...
RydenArmani.17.10.07.Wednesd...

3D
Zombies.Ueberlebe.die.Untote...
Norwegen.3D.2013.GERMAN.DL.D...
Norwegen.3D.2013.GERMAN.DOKU...
Jumanji.Willkommen.im.Dschun...
Jumanji.Welcome.To.The.Jungl...
Abraham.Lincoln.Vampire.Hunt...
Norwegen.3D.2013.MULTi.COMPL...
Star.Wars.Episode.VIII.Die.l...
Star.Wars.Episode.VIII.Die.l...
Star.Wars.Episode.VIII.Die.l...
Jumanji.Welcome.To.The.Jungl...
Star.Wars.The.Last.Jedi.2017...
Final.Storm.Der.Untergang.de...
Final.Storm.Der.Untergang.de...
Jumanji.Willkommen.im.Dschun...

Old_Stuff
Zeit.der.Zaertlichkeit.1983....
Zeit.der.Zaertlichkeit.1983....
Regular.Show.S01.1080p.BluRa...
Ostfriesisch.fuer.Anfaenger....
Planet.der.Affen.Prevolution...
Final.Fantasy.VII.Advent.Chi...
City.Slickers.2.1994.German....
R.I.P.D.Rest.in.Peace.Depart...
The.Hornets.Nest.2014.LIMITE...
Korengal.2014.DOCU.1080p.Blu...
The.Transporter.Refueled.201...
Transporter.3.2008.DUAL.COMP...
Transporter.The.Mission.DC.2...
Transporter.2002.DUAL.COMPLE...
Am.gruenen.Rand.der.Welt.Far...

Filme
Ein.ganz.verrueckter.Freitag...
Patrouillenboot.PT.109.1963....
Nina.2016.German.DL.1080p.Bl...
The.Quest.Die.Serie.S03.DUAL...
Assault.on.Precinct.13.-.Ans...
MotoGP.Moto2.Moto3.Saison.20...
MotoGP.Moto2.Moto3.Saison.20...
Irre.sind.maennlich.German.1...
Irre.sind.maennlich.2014.Ger...
Tapeheads.-.Verrueckt.auf.Vi...
Aus.dem.Nichts.2017.German.1...
Der.Hobbit.Die.Schlacht.Der....
Letters.From.Iwo.Jima.2006.M...
Shameless.US.S07D01+2.DUAL.C...
Meine.Stiefmutter.ist.ein.Al...
Harold.und.Kumar.2.Flucht.au...
127.Hours.2010.German.AC3.DL...
Indiana.Jones.Jaeger.des.ver...
Atemlos.Gefaehrliche.Wahrhei...
Charleston.Zwei.Faeuste.raeu...
Charleston.Zwei.Faeuste.raeu...
Der.Pakt.der.Woelfe.DC.2001....
Oceans.Eleven.Open.Matte.200...
Extreme.Ops.2002.German.DL.A...

 
 
Lethal.Weapon.S02.GERMAN.DUBBED.720p.WebHD.x264-idTV
Jahr: 2017
Genre: Action | Krimi | Drama
Sprache: Deutsch AC3
Laufzeit: 42min je Folge
Bitrate: 2500 Kbps
Format: MKV
Größe: 850 MB je Folge
Release:

Beschreibung:

Seit dem tragischen Unfalltod seiner geliebten schwangeren Ehefrau Miranda lebt der ehemalige Navy Seal aus Texas, Martin Riggs, permanent am Limit. Unberechenbar, aber genial und nicht zu bremsen, versucht er nach der privaten Tragödie in Los Angeles als Cop neu Fuß zu fassen. Kein Risiko ist ihm zu hoch, keine Gefahr zu groß und am Ende fehlt ihm seine junge Familie so sehr. Ausgerechnet Familienmensch Roger Murtaugh soll Riggs unter Kontrolle halten. Nach einer Herzoperation ist dieser vom lebensmüden Tempo seines neuen Partners alles andere als begeistert.

 

enthaltene Folgen:

Lethal.Weapon.S02E01.GERMAN.DUBBED.720p.WebHD.x264-idTV

Lethal.Weapon.S02E02.GERMAN.DUBBED.720p.WebHD.x264-idTV

Lethal.Weapon.S02E03.GERMAN.DUBBED.720p.WebHD.x264-idTV

Lethal.Weapon.S02E04.GERMAN.DUBBED.720p.WebHD.x264-idTV

Lethal.Weapon.S02E05.GERMAN.DUBBED.720p.WebHD.x264-idTV

Lethal.Weapon.S02E06.GERMAN.DUBBED.720p.WebHD.x264-idTV 

Lethal.Weapon.S02E07.GERMAN.DUBBED.720p.WebHD.x264-idTV

Lethal.Weapon.S02E08.GERMAN.DUBBED.720p.WebHD.x264-idTV

Lethal.Weapon.S02E09.GERMAN.DUBBED.720p.WebHD.x264-idTV

Lethal.Weapon.S02E10.GERMAN.DUBBED.720p.WebHD.x264-idTV

Lethal.Weapon.S02E11.GERMAN.DUBBED.720p.WebHD.x264-idTV

Lethal.Weapon.S02E12.GERMAN.DUBBED.720p.WebHD.x264-idTV

Lethal.Weapon.S02E13.GERMAN.DUBBED.720p.WebHD.x264-idTV NEU

Lethal.Weapon.S02E14.GERMAN.DUBBED.720p.WebHD.x264-idTV NEU



General
Complete name                            : Lethal.Weapon.S02E01.GERMAN.DUBBED.720p.WebHD.x264-idTV\lethal.weapon.s02e01.german.dubbed.720p.webhd.x264-idtv.mkv
Format                                   : Matroska
Format version                           : Version 4 / Version 2
File size                                : 838 MiB
Duration                                 : 42mn 22s
Overall bit rate                         : 2 766 Kbps
Movie name                               : Lethal.Weapon.S02E01.GERMAN.DUBBED.720p.WebHD.x264-idTV
Encoded date                             : UTC 2018-01-19 21:26:50
Writing application                      : mkvmerge v19.0.0 ('Brave Captain') 64-bit
Writing library                          : libebml v1.3.5 + libmatroska v1.4.8
DURATION                                 : 00:42:22.368000000
NUMBER_OF_FRAMES                         : 79449
NUMBER_OF_BYTES                          : 61016832
_STATISTICS_WRITING_APP                  : mkvmerge v19.0.0 ('Brave Captain') 64-bit
_STATISTICS_WRITING_DATE_UTC             : 2018-01-19 21:26:50
_STATISTICS_TAGS                         : BPS DURATION NUMBER_OF_FRAMES NUMBER_OF_BYTES

Video
ID                                       : 1
Format                                   : AVC
Format/Info                              : Advanced Video Codec
Format profile                           : High@L4.1
Format settings, CABAC                   : Yes
Format settings, ReFrames                : 5 frames
Codec ID                                 : V_MPEG4/ISO/AVC
Duration                                 : 42mn 22s
Bit rate                                 : 2 519 Kbps
Width                                    : 1 280 pixels
Height                                   : 720 pixels
Display aspect ratio                     : 16:9
Frame rate mode                          : Constant
Frame rate                               : 25.000 fps
Original frame rate                      : 23.976 fps
Color space                              : YUV
Chroma subsampling                       : 4:2:0
Bit depth                                : 8 bits
Scan type                                : Progressive
Bits/(Pixel*Frame)                       : 0.109
Stream size                              : 764 MiB (91%)
Writing library                          : x264 core 155 r2901M idTV
Encoding settings                        : cabac=1 / ref=5 / deblock=1:-3:-3 / analyse=0x3:0x133 / me=umh / subme=8 / psy=1 / psy_rd=1.00:0.00 / mixed_ref=1 / me_range=16 / chroma_me=1 / trellis=2 / 8x8dct=1 / cqm=0 / deadzone=21,11 / fast_pskip=0 / chroma_qp_offset=-2 / threads=12 / lookahead_threads=2 / sliced_threads=0 / nr=0 / decimate=1 / interlaced=0 / bluray_compat=0 / constrained_intra=0 / bframes=3 / b_pyramid=2 / b_adapt=1 / b_bias=0 / direct=3 / weightb=1 / open_gop=0 / weightp=2 / keyint=250 / keyint_min=23 / scenecut=40 / intra_refresh=0 / rc_lookahead=50 / rc=crf / mbtree=1 / crf=18.0 / qcomp=0.60 / qpmin=10 / qpmax=51 / qpstep=4 / ip_ratio=1.40 / aq=1:1.00
Language                                 : English
Default                                  : Yes
Forced                                   : No
Color primaries                          : BT.709
Transfer characteristics                 : BT.709
Matrix coefficients                      : BT.709
DURATION                                 : 00:42:22.240000000
NUMBER_OF_FRAMES                         : 63556
NUMBER_OF_BYTES                          : 817511384
_STATISTICS_WRITING_APP                  : mkvmerge v19.0.0 ('Brave Captain') 64-bit
_STATISTICS_WRITING_DATE_UTC             : 2018-01-19 21:26:50
_STATISTICS_TAGS                         : BPS DURATION NUMBER_OF_FRAMES NUMBER_OF_BYTES

Audio
ID                                       : 2
Format                                   : AC-3
Format/Info                              : Audio Coding 3
Mode extension                           : CM (complete main)
Format settings, Endianness              : Big
Codec ID                                 : A_AC3
Duration                                 : 42mn 22s
Bit rate mode                            : Constant
Bit rate                                 : 192 Kbps
Channel(s)                               : 2 channels
Channel positions                        : Front: L R
Sampling rate                            : 48.0 KHz
Bit depth                                : 16 bits
Compression mode                         : Lossy
Stream size                              : 58.2 MiB (7%)
Language                                 : German
Default                                  : Yes
Forced                                   : Yes



Download:
Share-Online.biz Share-Online.bizShare-Online.bizShare-Online.biz | Rapidgator.net Rapidgator.netRapidgator.netRapidgator.net
 

Kommentare