DNS SERVER AENDERNum der staatlichen Zensur zu umgehen. Sollten wir von eurem Provider geseprrt werden, nutzt den TOR BROWSER oder ändert euren DNS SERVER.

Filmwünsche können bei uns im Forum abgegeben werden

Wir Speichern Nicht




 
 
 
Top Releases
Im.Zweifel.gluecklich.2017.G...
Im.Zweifel.gluecklich.2017.G...
Thelma.2017.GERMAN.720p.BluR...
Thelma.2017.GERMAN.1080p.Blu...
Thelma.2017.GERMAN.DUAL.COMP...
The.Death.of.Stalin.2017.Ger...
Revenge.2017.German.AC3.DL.1...
Avengers.Infinity.War.2018.G...
Avengers.Infinity.War.2018.G...
Avengers.Infinity.War.2018.G...

Cinedubs
Breaking.In.2018.UNRATED.GER...
Breaking.In.2018.UNRATED.GER...
Breaking.In.2018.UNRATED.GER...
Deadpool.2.2018.Super.Duper....
Deadpool.2.2018.Super.Duper....
Die.Farbe.des.Horizonts.2018...
Die.Farbe.des.Horizonts.2018...
Catch.Me.2018.GERMAN.DL.AC3....
Catch.Me.2018.GERMAN.DL.AC3....
Deadpool.2.Super.Duper.Cut.2...

Neuerscheinungen 2017-18
A.Thought.of.Ecstasy.2017.MU...
Criminal.Squad.THEATRICAL.20...
Criminal.Squad.THEATRICAL.20...
Criminal.Squad.THEATRICAL.20...
Criminal.Squad.THEATRICAL.20...
Action.Point.2018.German.AC3...
A.Thought.of.Ecstasy.2017.Ge...
A.Thought.of.Ecstasy.2017.Ge...
The.Package.2018.GERMAN.720p...
Norma.Rae.1979.MULTi.COMPLET...

XXX
WildOnCam.18.08.14.Vienna.Ro...
Yanks.18.08.04.Daliah.Amor.B...
BitchConfessions.18.08.13.Ba...
21FootArt.18.08.14.Shona.Riv...
WildOnCam.18.08.13.Luna.Star...
ZeroTolerance.Bring.Back.Bus...
WildOnCam.18.08.03.Lilly.Hal...
BlackPayBack.E03.Violet.Monr...
X-Art.18.08.03.Niki.Young.18...
WowGirls.18.08.13.Anina.Silk...
XXXShades.18.08.05.Lee.Anne....
ATKGirlfriends.18.08.13.Tara...
BlackPayBack.E08.Lauren.Phil...
BlackPayBack.E06.Summer.Day....
WickedPictures.Deep.Anal.Dri...
X-Art.18.08.08.Zazie.Hot.Off...
BlackPayBack.E05.Maddy.Oreil...
WhenGirlsPlay.18.08.14.Elena...
WhiteGhetto.18.08.14.Gia.Ste...
WildOnCam.18.08.10.Isabelle....

3D
Rampage.Big.Meets.Bigger.3D....
Rampage.Big.Meets.Bigger.3D....
Rampage.Big.Meets.Bigger.3D....
Winter.Games.3D.2013.DUAL.CO...
Tomb.Raider.3D.2018.German.7...
Rampage.Big.Meets.Bigger.3D....
Rampage.Big.Meets.Bigger.3D....
Tomb.Raider.3D.2018.MULTi.CO...
Pacific.Rim.Uprising.3D.2018...
Ready.Player.One.3D.2018.Ger...
Rampage.-.Big.Meets.Bigger.2...
Ready.Player.One.2018.3D.HOU...
Ready.Player.One.2018.3D.HSB...
Ready.Player.One.3D.2018.MUL...
Black.Panther.3D.2018.MULTI....

Old_Stuff
Meine.liebe.Rabenmutter.germ...
Da.Vincis.Demons.S01.Complet...
Eragon.Das.Vermaechtnis.der....
Adele.und.das.Geheimnis.des....
Die.fabelhafte.Welt.der.Amel...
Haus.des.Geldes.S01.German.M...
How.I.Met.Your.Mother.S01.Ge...
The.Dark.Knight.Rises.2012.M...
Weissensee.S03.2015.GERMAN.C...
Weissensee.S01+S02.2010.GERM...
Die.Unglaublichen.-.The.Incr...
Der.grosse.Trick.1978.German...
Sully.2016.MULTi.COMPLETE.BL...
Tremors.3.Die.neue.Brut.2001...
Die.Indianer.von.Cleveland.2...

Filme
Rampage.Big.Meets.Bigger.201...
Rescue.Dawn.2006.German.AC3....
The.Lodger.-.Der.Untermieter...
Die.zwei.Gesichter.des.Janua...
Hanni.und.Nanni.4.Mehr.als.b...
Mein.Freund.der.Wasserdrache...
24.Stunden.in.seiner.Gewalt....
Protocol.1984.German.AC3D.DL...
Final.Destination.4.2009.Ger...
Last.Vegas.2013.German.AC3.D...
Verdammt.Die.Zombies.Kommen....
Verdammt.Die.Zombies.Kommen....
Need.for.Speed.2014.German.A...
20.Feet.from.Stardom.2013.DO...
A.Thought.of.Ecstasy.2017.Ge...
Push.2009.German.DL.1080p.Bl...
Perfect.Sense.German.DL.1080...
Der.Teufel.ist.eine.Frau.193...
Mothers.Day.Mutter.ist.wiede...
A.Quiet.Place.2018.German.DL...
Prinz.Eisenherz.1954.German....
Phantom.Kommando.1985.German...
Sein.Freund.Jello.1957.Germa...
Sein.Freund.Jello.1957.Germa...

 
 
Lethal.Weapon.S02.COMPLETE.GERMAN.DL.DUBBED.1080p.WebHD.h264-SCENE
Jahr: 2017
Genre: Action | Krimi | Drama
Sprache: Deutsch AC3 | Englisch AC3
Laufzeit: 42min je Folge
Bitrate: 8800 Kbps
Format: MKV
Größe: 2,9 GB je Folge
Release:

Beschreibung:

Seit dem tragischen Unfalltod seiner geliebten schwangeren Ehefrau Miranda lebt der ehemalige Navy Seal aus Texas, Martin Riggs, permanent am Limit. Unberechenbar, aber genial und nicht zu bremsen, versucht er nach der privaten Tragödie in Los Angeles als Cop neu Fuß zu fassen. Kein Risiko ist ihm zu hoch, keine Gefahr zu groß und am Ende fehlt ihm seine junge Familie so sehr. Ausgerechnet Familienmensch Roger Murtaugh soll Riggs unter Kontrolle halten. Nach einer Herzoperation ist dieser vom lebensmüden Tempo seines neuen Partners alles andere als begeistert.

 

Folge 16-22 added. Staffel komplett.



General
Complete name                            : Lethal.Weapon.S02E01.GERMAN.DL.DUBBED.1080p.WebHD.h264-VoDTv\lethal.weapon.s02e01.german.dl.dubbed.1080p.webhd.h264-vodtv.mkv
Format                                   : Matroska
Format version                           : Version 4 / Version 2
File size                                : 2.94 GiB
Duration                                 : 42mn 22s
Overall bit rate mode                    : Variable
Overall bit rate                         : 9 929 Kbps
Movie name                               : Lethal.Weapon.S02E01.GERMAN.DL.DUBBED.1080p.WebHD.h264-VoDTv
Encoded date                             : UTC 2018-01-19 20:31:35
Writing application                      : mkvmerge v19.0.0 ('Brave Captain') 64-bit
Writing library                          : libebml v1.3.5 + libmatroska v1.4.8
DURATION                                 : 00:42:22.208000000
NUMBER_OF_FRAMES                         : 82837
NUMBER_OF_BYTES                          : 212062720
_STATISTICS_WRITING_APP                  : mkvmerge v19.0.0 ('Brave Captain') 64-bit
_STATISTICS_WRITING_DATE_UTC             : 2018-01-19 20:31:35
_STATISTICS_TAGS                         : BPS DURATION NUMBER_OF_FRAMES NUMBER_OF_BYTES

Video
ID                                       : 1
Format                                   : AVC
Format/Info                              : Advanced Video Codec
Format profile                           : High@L4.0
Format settings, CABAC                   : Yes
Format settings, ReFrames                : 4 frames
Codec ID                                 : V_MPEG4/ISO/AVC
Duration                                 : 42mn 22s
Bit rate mode                            : Variable
Bit rate                                 : 8 899 Kbps
Maximum bit rate                         : 15.0 Mbps
Width                                    : 1 920 pixels
Height                                   : 1 080 pixels
Display aspect ratio                     : 16:9
Frame rate mode                          : Constant
Frame rate                               : 25.000 fps
Original frame rate                      : 23.976 fps
Color space                              : YUV
Chroma subsampling                       : 4:2:0
Bit depth                                : 8 bits
Scan type                                : Progressive
Bits/(Pixel*Frame)                       : 0.172
Stream size                              : 2.63 GiB (90%)
Default                                  : Yes
Forced                                   : No
Color primaries                          : BT.709
Transfer characteristics                 : BT.709
Matrix coefficients                      : BT.709

Audio #1
ID                                       : 2
Format                                   : AC-3
Format/Info                              : Audio Coding 3
Mode extension                           : CM (complete main)
Format settings, Endianness              : Big
Codec ID                                 : A_AC3
Duration                                 : 42mn 22s
Bit rate mode                            : Constant
Bit rate                                 : 192 Kbps
Channel(s)                               : 2 channels
Channel positions                        : Front: L R
Sampling rate                            : 48.0 KHz
Bit depth                                : 16 bits
Compression mode                         : Lossy
Stream size                              : 58.2 MiB (2%)
Language                                 : German
Default                                  : Yes
Forced                                   : Yes

Audio #2
ID                                       : 3
Format                                   : E-AC-3
Format/Info                              : Audio Coding 3
Format settings, Endianness              : Big
Codec ID                                 : A_EAC3
Duration                                 : 42mn 22s
Bit rate mode                            : Constant
Bit rate                                 : 640 Kbps
Channel(s)                               : 6 channels
Channel positions                        : Front: L C R, Side: L R, LFE
Sampling rate                            : 48.0 KHz
Compression mode                         : Lossy
Stream size                              : 194 MiB (6%)
Language                                 : English
Default                                  : No
Forced                                   : No



Download:
Share-Online.biz Share-Online.bizShare-Online.bizShare-Online.biz
 

Kommentare

  1. Geschrieben am 1. May 2018, 14:15 Uhr von Hardy · #

    Hey
    ich wollte mal fragen, ob es bei Lethal Weapon noch weitergeht. Leider habe ich bei Sat1 ein paar Folgen verpasst.
    Und ich wollte ein Lob an dich und alle anderen Upper verteilen. Das ist die beste Seite für Serien und Filme die ich kenne.

    Ciao

  2. Geschrieben am 10. August 2018, 19:38 Uhr von schneiderleimchen · #

    Episode 16 fehlt .

    / dann aber nur bei Dir.