DNS SERVER AENDERNum der staatlichen Zensur zu umgehen. Sollten wir von eurem Provider geseprrt werden, nutzt den TOR BROWSER oder ändert euren DNS SERVER.

Filmwünsche können bei uns im Forum abgegeben werden

Wir Speichern Nicht




 
 
 
Top Releases
Your.Name.German.DL.1080p.Bl...
Your.Name.Gestern.heute.und....
Mr.Church.2016.German.DL.AC3...
Mr.Church.2016.German.DL.AC3...
Red.Sparrow.2018.German.DL.A...
Wunder.2017.MULTI.COMPLETE.B...
Der.andere.Liebhaber.2017.MU...
Hands.of.Stone.Faeuste.aus.S...
Rogue.One.A.Star.Wars.Story....
The.Salesman.2016.German.AC3...

Cinedubs
Pacific.Rim.2.Uprising.Germa...
Pacific.Rim.2.Uprising.Germa...
Feinde.Hostiles.German.DL.AC...
Feinde.Hostiles.German.DL.AC...
Renegades.German.AC3MD.DL.10...
Renegades.German.AC3MD.DL.72...
Jawbone.German.DL.AC3.Dubbed...
Jawbone.German.DL.AC3.Dubbed...
Das.ist.erst.der.Anfang.Germ...
Das.ist.erst.der.Anfang.Germ...

Neuerscheinungen 2017-18
Havenhurst.2016.German.1080p...
Havenhurst.2016.German.720p....
Havenhurst.2016.German.DL.10...
Havenhurst.2016.DUAL.COMPLET...
Fifty.Shades.of.Grey.Befreit...
Ausloeschung.2018.German.AC3...
Ausloeschung.2018.German.AC3...
Bullyparade.Der.Film.2017.Ge...
Bullyparade.Der.Film.2017.Ge...
Cargo.2017.German.Dubbed.DL....

XXX
RydenArmani.17.07.26.Cotton....
TheLifeErotic.18.03.16.Maari...
Throated.18.03.16.Anna.De.Vi...
RydenArmani.18.02.03.Sweethe...
Spizoo.18.03.17.Samantha.Ron...
PrivateSociety.18.03.19.Bren...
PublicPickUps.18.03.17.Xiann...
SpyFam.18.03.19.Emily.Willis...
TheWhiteBoxxx.18.03.17.Natal...
Spizoo.18.03.21.Maxim.Law.Vs...
RodneyMoore.18.03.13.Kat.Lix...
PropertySex.18.03.16.Lily.La...
ThirdMovies.My.Moms.Dark.Sec...
RealWifeStories.18.03.20.Kay...
RydenArmani.17.12.20.Christm...
PublicAgent.18.03.20.Dayana....
TheLifeErotic.18.03.18.Layla...
RydenArmani.17.11.12.Anal.Pl...
RodneyMoore.18.03.14.Lindy.L...
RydenArmani.17.10.07.Wednesd...

3D
Zombies.Ueberlebe.die.Untote...
Norwegen.3D.2013.GERMAN.DL.D...
Norwegen.3D.2013.GERMAN.DOKU...
Jumanji.Willkommen.im.Dschun...
Jumanji.Welcome.To.The.Jungl...
Abraham.Lincoln.Vampire.Hunt...
Norwegen.3D.2013.MULTi.COMPL...
Star.Wars.Episode.VIII.Die.l...
Star.Wars.Episode.VIII.Die.l...
Star.Wars.Episode.VIII.Die.l...
Jumanji.Welcome.To.The.Jungl...
Star.Wars.The.Last.Jedi.2017...
Final.Storm.Der.Untergang.de...
Final.Storm.Der.Untergang.de...
Jumanji.Willkommen.im.Dschun...

Old_Stuff
Zeit.der.Zaertlichkeit.1983....
Zeit.der.Zaertlichkeit.1983....
Regular.Show.S01.1080p.BluRa...
Ostfriesisch.fuer.Anfaenger....
Planet.der.Affen.Prevolution...
Final.Fantasy.VII.Advent.Chi...
City.Slickers.2.1994.German....
R.I.P.D.Rest.in.Peace.Depart...
The.Hornets.Nest.2014.LIMITE...
Korengal.2014.DOCU.1080p.Blu...
The.Transporter.Refueled.201...
Transporter.3.2008.DUAL.COMP...
Transporter.The.Mission.DC.2...
Transporter.2002.DUAL.COMPLE...
Am.gruenen.Rand.der.Welt.Far...

Filme
Ein.ganz.verrueckter.Freitag...
Patrouillenboot.PT.109.1963....
Nina.2016.German.DL.1080p.Bl...
The.Quest.Die.Serie.S03.DUAL...
Assault.on.Precinct.13.-.Ans...
MotoGP.Moto2.Moto3.Saison.20...
MotoGP.Moto2.Moto3.Saison.20...
Irre.sind.maennlich.German.1...
Irre.sind.maennlich.2014.Ger...
Tapeheads.-.Verrueckt.auf.Vi...
Aus.dem.Nichts.2017.German.1...
Der.Hobbit.Die.Schlacht.Der....
Letters.From.Iwo.Jima.2006.M...
Shameless.US.S07D01+2.DUAL.C...
Meine.Stiefmutter.ist.ein.Al...
Harold.und.Kumar.2.Flucht.au...
127.Hours.2010.German.AC3.DL...
Indiana.Jones.Jaeger.des.ver...
Atemlos.Gefaehrliche.Wahrhei...
Charleston.Zwei.Faeuste.raeu...
Charleston.Zwei.Faeuste.raeu...
Der.Pakt.der.Woelfe.DC.2001....
Oceans.Eleven.Open.Matte.200...
Extreme.Ops.2002.German.DL.A...

 
 
Blade.Runner.2049.3D.HOU.German.DL.RETAiL.AC3D.1080p.BluRay.x264-PS
Jahr: 2017
Genre: Sci-Fi, Thriller
Sprache: Deutsch AC3 | Englisch AC3
Laufzeit: 2h 43mn
Bitrate: 8 835 Kbps
Format: MKV
Größe: 10.1 GiB
Release:

Beschreibung:
Im Jahr 2023 wird die Herstellung von Replikanten – künstlichen Menschen, die zum Einsatz in den Weltall-Kolonien gezüchtet werden – nach mehreren schwerwiegenden Vorfällen verboten. Als der brillante Industrielle Niander Wallace (Jared Leto) ein neues, verbessertes Modell, den „Nexus 9“, vorstellt, wird die Produktion 2036 jedoch wieder erlaubt. Um ältere und somit nicht zugelassene Replikanten-Modelle, die sich auf der Erde verstecken, aufzuspüren und zu eliminieren, ist weiterhin die sogenannte „Blade Runner“-Einheit des LAPD im Einsatz, zu der auch K (Ryan Gosling) gehört. Bei seiner Arbeit stößt K auf ein düsteres, gut gehütetes Geheimnis von enormer Sprengkraft, das ihn auf die Spur eines ehemaligen Blade Runners bringt: Rick Deckard (Harrison Ford), der vor 30 Jahren aus Los Angeles verschwand…

 



Complete name                            : ps-bld2049.3dhou.mkv
Format                                   : Matroska
Format version                           : Version 4 / Version 2
File size                                : 10.1 GiB
Duration                                 : 2h 43mn
Overall bit rate                         : 8 835 Kbps
Encoded date                             : UTC 2018-01-23 06:12:16
Writing application                      : mkvmerge v8.3.0 ('Over the Horizon') 64bit
Writing library                          : libebml v1.3.1 + libmatroska v1.4.2
DURATION                                 : 02:42:36.527000000
NUMBER_OF_FRAMES                         : 1045
NUMBER_OF_BYTES                          : 5456468
_STATISTICS_WRITING_APP                  : mkvmerge v8.3.0 ('Over the Horizon') 64bit
_STATISTICS_WRITING_DATE_UTC             : 2018-01-23 06:12:16
_STATISTICS_TAGS                         : BPS DURATION NUMBER_OF_FRAMES NUMBER_OF_BYTES

Video
ID                                       : 1
Format                                   : AVC
Format/Info                              : Advanced Video Codec
Format profile                           : High@L4.1
Format settings, CABAC                   : Yes
Format settings, ReFrames                : 4 frames
Codec ID                                 : V_MPEG4/ISO/AVC
Duration                                 : 2h 43mn
Bit rate                                 : 8 000 Kbps
Width                                    : 1 920 pixels
Height                                   : 1 080 pixels
Display aspect ratio                     : 16:9
Frame rate mode                          : Constant
Frame rate                               : 23.976 fps
Color space                              : YUV
Chroma subsampling                       : 4:2:0
Bit depth                                : 8 bits
Scan type                                : Progressive
Bits/(Pixel*Frame)                       : 0.161
Stream size                              : 8.94 GiB (89%)
Writing library                          : x264 core 146 r2538 121396c
Encoding settings                        : cabac=1 / ref=4 / deblock=1:-3:-3 / analyse=0x3:0x113 / me=umh / subme=10 / psy=1 / psy_rd=1.00:0.00 / mixed_ref=1 / me_range=32 / chroma_me=1 / trellis=2 / 8x8dct=1 / cqm=0 / deadzone=21,11 / fast_pskip=0 / chroma_qp_offset=-2 / threads=12 / lookahead_threads=3 / sliced_threads=0 / nr=0 / decimate=0 / interlaced=0 / bluray_compat=0 / constrained_intra=0 / bframes=10 / b_pyramid=2 / b_adapt=2 / b_bias=0 / direct=3 / weightb=1 / open_gop=0 / weightp=2 / keyint=250 / keyint_min=23 / scenecut=40 / intra_refresh=0 / rc_lookahead=60 / rc=2pass / mbtree=0 / bitrate=8000 / ratetol=1.0 / qcomp=0.70 / qpmin=0 / qpmax=69 / qpstep=4 / cplxblur=20.0 / qblur=0.5 / vbv_maxrate=40000 / vbv_bufsize=30000 / nal_hrd=none / filler=0 / frame-packing=4 / ip_ratio=1.40 / pb_ratio=1.30 / aq=1:0.70
Language                                 : English
Default                                  : Yes
Forced                                   : No
DURATION                                 : 02:43:27.840000000
NUMBER_OF_FRAMES                         : 235153
NUMBER_OF_BYTES                          : 9808891313
_STATISTICS_WRITING_APP                  : mkvmerge v8.3.0 ('Over the Horizon') 64bit
_STATISTICS_WRITING_DATE_UTC             : 2018-01-23 06:12:16
_STATISTICS_TAGS                         : BPS DURATION NUMBER_OF_FRAMES NUMBER_OF_BYTES

Audio #1
ID                                       : 2
Format                                   : AC-3
Format/Info                              : Audio Coding 3
Mode extension                           : CM (complete main)
Format settings, Endianness              : Big
Codec ID                                 : A_AC3
Duration                                 : 2h 43mn
Bit rate mode                            : Constant
Bit rate                                 : 192 Kbps
Channel(s)                               : 2 channels
Channel positions                        : Front: L R
Sampling rate                            : 48.0 KHz
Bit depth                                : 16 bits
Compression mode                         : Lossy
Stream size                              : 225 MiB (2%)
Language                                 : German
Default                                  : Yes
Forced                                   : Yes

Audio #2
ID                                       : 3
Format                                   : AC-3
Format/Info                              : Audio Coding 3
Mode extension                           : CM (complete main)
Format settings, Endianness              : Big
Codec ID                                 : A_AC3
Duration                                 : 2h 43mn
Bit rate mode                            : Constant
Bit rate                                 : 640 Kbps
Channel(s)                               : 6 channels
Channel positions                        : Front: L C R, Side: L R, LFE
Sampling rate                            : 48.0 KHz
Bit depth                                : 16 bits
Compression mode                         : Lossy
Stream size                              : 749 MiB (7%)
Language                                 : English
Default                                  : No
Forced                                   : No

Text #1
ID                                       : 4
Format                                   : VobSub
Muxing mode                              : zlib
Codec ID                                 : S_VOBSUB
Codec ID/Info                            : The same subtitle format used on DVDs
Language                                 : German
Default                                  : Yes
Forced                                   : Yes

Text #2
ID                                       : 5
Format                                   : VobSub
Muxing mode                              : zlib
Codec ID                                 : S_VOBSUB
Codec ID/Info                            : The same subtitle format used on DVDs
Language                                 : German
Default                                  : No
Forced                                   : No


Download:
Share Online Share OnlineShare OnlineShare Online
 

Kommentare