Filecrypt zeigt vereinzelt Files als "n/a". Die Downloads sind trotzdem komplett.

DNS SERVER AENDERNum der staatlichen Zensur zu umgehen. Sollten wir von eurem Provider geseprrt werden, nutzt den TOR BROWSER oder ändert euren DNS SERVER.

Filmwünsche können bei uns im Forum abgegeben werden

Wir Speichern Nicht




 
 
 
Top Releases
Batman.The.Killing.Joke.2016...
Moonlight.2016.German.DL.DTS...
Love.Simon.2018.German.DTS.D...
Love.Simon.2018.German.DTS.D...
The.Night.Comes.for.Us.2018....
The.Night.Comes.for.Us.2018....
Cartel.Land.2015.German.DTSH...
Assassination.2015.German.DT...
The.Discovery.2017.German.AC...
Errementari.Der.Schmied.und....

Cinedubs
Bad.Spies.2018.German.AC3MD....
Bad.Spies.2018.German.AC3MD....
MEG.Biss.bald.2018.German.AC...
Slender.Man.2018.GERMAN.DL.A...
Slender.Man.2018.GERMAN.DL.A...
MEG.Biss.bald.2018.German.AC...
MEG.Biss.bald.2018.German.AC...
Searching.2018.German.AC3MD....
Searching.2018.German.AC3MD....
211.Cops.Under.Fire.2018.Ger...

Neuerscheinungen 2017-18
Point.Break.2015.German.DL.D...
Der.Himmel.ueber.Berlin.1987...
Tales.from.the.Hood.2.2018.G...
Tales.from.the.Hood.2.2018.G...
Tau.2018.German.AC3.DL.1080p...
Ploetzlich.Santa.2016.GERMAN...
Ploetzlich.Santa.2016.GERMAN...
Ploetzlich.Santa.2016.GERMAN...
Taxi.5.2018.GERMAN.AC3.1080p...
Taxi.5.2018.GERMAN.AC3.720p....

XXX
Foute.Meiden.Time.For.A.Full...
EverythingButt.18.10.05.Lise...
Spizoo.18.10.05.Christy.Love...
BurningAngel.18.10.02.Larkin...
KarupsHA.18.10.01.Scarlett.J...
Seduced.By.My.Secretary.XXX....
HotLegsAndFeet.18.10.02.Inna...
Milfty.18.10.05.Prestyn.Lee....
KarupsHA.18.10.04.Scarlett.J...
PornMegaLoad.18.10.04.Andrea...
VivThomas.18.10.05.Luna.Cora...
Foute.Meiden.Time.For.A.Full...
WankItNow.17.11.15.Sophia.Sm...
Mylfed.18.09.30.Kenzie.Taylo...
PixAndVideo.18.10.01.Lexy.Go...
SimplyAnal.18.10.04.Kerry.Ch...
MistressT.18.02.24.Just.Fuck...
TheLifeErotic.18.10.02.Bree....
MistressT.17.12.15.Goddess.P...
SweetSinner.18.10.02.Karlee....

3D
Detective.Dee.und.die.Legend...
Detective.Dee.und.die.Legend...
Skyscraper.3D.German.DL.AC3....
Ant-Man.and.the.Wasp.2018.3D...
Jurassic.World.Das.gefallene...
Jurassic.World.Das.gefallene...
Best.of.3D.vol.10.-.12.GERMA...
Die.Biene.Maja.2.Die.Honigsp...
Sharknado.6.The.Last.One.3D....
Solo.A.Star.Wars.Story.3D.20...
Solo.A.Star.Wars.Story.3D.20...
Die.Biene.Maja.2.Die.Honigsp...
Avengers.Infinity.War.3D.201...
Avengers.Infinity.War.3D.201...
Rampage.Big.Meets.Bigger.3D....

Old_Stuff
Species.IV.Das.Erwachen.2007...
Species.IV.Das.Erwachen.2007...
Hotel.Transsilvanien.2012.Ge...
The.Dead.2010.German.DL.1080...
The.Dead.2.India.2013.German...
Britney.Spears.Live.The.Femm...
Buffy.The.Vampire.Slayer.199...
IMAX.Ride.Around.The.World.2...
Schimanski.-.Duisburg.Ruhror...
Akte.X.S02.German.DTS.DL.108...
How.I.Met.Your.Mother.S02.Ge...
Akte.X.S01.German.DTS.DL.108...
Den.Himmel.gibts.echt.DL.108...
Vikings.S02.German.DL.1080p....
Be.Kind.Rewind.Abgedreht.200...

Filme
Weissensee.S01-S03.COMPLETE....
Wolfsnaechte.2018.German.DL....
Der.Himmel.ueber.Berlin.1987...
The.Purge.S01.German.DD+51.D...
The.Purge.S01.German.DD+51.D...
Snowfall.S02.COMPLETE.GERMAN...
Marvels.Daredevil.S03.COMPLE...
Marvels.Daredevil.S03.COMPLE...
Snowfall.S02.COMPLETE.German...
Krypton.S01.GERMAN.DUBBED.72...
Michelangelo.Inferno.und.Eks...
Ein.Sommer.in.der.Provence.G...
Ein.Sommer.in.New.Jersey.200...
Ein.Tag.Blau.2008.German.DL....
Ein.Tag.in.Middleton.2013.Ge...
Ein.schoenes.Maedchen.wie.ic...
Krypton.S01.German.DD51.Dubb...
Female.Justice.aka.Blonde.Ra...
The.Outpost.S01.GERMAN.720p....
iZombie.S04.German.DD51.Dubb...
iZombie.S04.German.DD51.Dubb...
Humans.S03.German.DD20.Dubbe...
Ein.Sommer.in.New.York.Germa...
The.First.Purge.2018.German....

 
 
Snowfall.S01.COMPLETE.GERMAN.DUBBED.DL.720p.WebHD.x264-TVP
Jahr: 2017
Genre: Krimi | Drama
Sprache: Deutsch AC3 | Englisch AC3
Laufzeit: 55min je Folge
Bitrate: 5000 Kbps
Format: MKV
Größe: 2,2 GB je Folge
Release:

Beschreibung:

Die Serie erzählt davon, wie sich Crack und Kokain zu Beginn der 1980er Jahre in Los Angeles geradezu epidemisch ausbreiteten und das Leben und die Kultur in der kalifornischen Film- und Unterhaltungsmetropole massiv beeinflussten.

 

enthaltene Folgen (Staffel komplett):

Snowfall.S01E01.Neue.Regeln.GERMAN.DUBBED.DL.720p.WebHD.x264-TVP

Snowfall.S01E02.Das.Ikarus.Syndrom.GERMAN.DUBBED.DL.720p.WebHD.x264-TVP

Snowfall.S01E03.Gegenwind.GERMAN.DUBBED.DL.720p.WebHD.x264-TVP 

Snowfall.S01E04.Verlorene.Unschuld.GERMAN.DUBBED.DL.720p.WebHD.x264-TVP

Snowfall.S01E05.Gestrandet.GERMAN.DUBBED.DL.720p.WebHD.x264-TVP 

Snowfall.S01E06.Neue.Geschaeftspartner.GERMAN.DUBBED.DL.720p.WebHD.x264.REPACK-TVP

Snowfall.S01E07.Auf.eigene.Faust.GERMAN.DUBBED.DL.720p.WebHD.x264-TVP

Snowfall.S01E08.Die.Aussaat.GERMAN.DUBBED.DL.720p.WebHD.x264-TVP

Snowfall.S01E09.Allianzen.GERMAN.DUBBED.DL.720p.WebHD.x264-TVP NEU

Snowfall.S01E10.Rubikon.GERMAN.DUBBED.DL.720p.WebHD.x264-TVP NEU



General
Complete name                            : Snowfall.S01E01.Neue.Regeln.GERMAN.DUBBED.DL.720p.WebHD.x264-TVP\tvp-snowfall-s01e01-720p.mkv
Format                                   : Matroska
Format version                           : Version 4 / Version 2
File size                                : 2.20 GiB
Duration                                 : 55mn 26s
Overall bit rate                         : 5 690 Kbps
Movie name                               : Snowfall.S01E01.Neue.Regeln.GERMAN.DUBBED.DL.720p.WebHD.x264-TVP
Encoded date                             : UTC 2018-01-25 21:52:17
Writing application                      : mkvmerge v8.5.2 ('Crosses') 64bit
Writing library                          : libebml v1.3.3 + libmatroska v1.4.4
DURATION                                 : 00:55:26.944000000
NUMBER_OF_FRAMES                         : 103967
NUMBER_OF_BYTES                          : 159693312
_STATISTICS_WRITING_APP                  : mkvmerge v8.5.2 ('Crosses') 64bit
_STATISTICS_WRITING_DATE_UTC             : 2018-01-25 21:52:17
_STATISTICS_TAGS                         : BPS DURATION NUMBER_OF_FRAMES NUMBER_OF_BYTES

Video
ID                                       : 1
Format                                   : AVC
Format/Info                              : Advanced Video Codec
Format profile                           : High@L4.1
Format settings, CABAC                   : Yes
Format settings, ReFrames                : 9 frames
Codec ID                                 : V_MPEG4/ISO/AVC
Duration                                 : 55mn 26s
Bit rate                                 : 5 001 Kbps
Width                                    : 1 280 pixels
Height                                   : 720 pixels
Display aspect ratio                     : 16:9
Frame rate mode                          : Constant
Frame rate                               : 25.000 fps
Original frame rate                      : 23.976 fps
Color space                              : YUV
Chroma subsampling                       : 4:2:0
Bit depth                                : 8 bits
Scan type                                : Progressive
Bits/(Pixel*Frame)                       : 0.217
Stream size                              : 1.94 GiB (88%)
Title                                    : tvp-snowfall-s01e01-720p
Language                                 : German
Default                                  : Yes
Forced                                   : Yes
DURATION                                 : 00:55:26.920000000
NUMBER_OF_FRAMES                         : 83173
NUMBER_OF_BYTES                          : 2126031819
_STATISTICS_WRITING_APP                  : mkvmerge v8.5.2 ('Crosses') 64bit
_STATISTICS_WRITING_DATE_UTC             : 2018-01-25 21:52:17
_STATISTICS_TAGS                         : BPS DURATION NUMBER_OF_FRAMES NUMBER_OF_BYTES

Audio #1
ID                                       : 2
Format                                   : AC-3
Format/Info                              : Audio Coding 3
Mode extension                           : CM (complete main)
Format settings, Endianness              : Big
Codec ID                                 : A_AC3
Duration                                 : 55mn 26s
Bit rate mode                            : Constant
Bit rate                                 : 192 Kbps
Channel(s)                               : 2 channels
Channel positions                        : Front: L R
Sampling rate                            : 48.0 KHz
Bit depth                                : 16 bits
Compression mode                         : Lossy
Stream size                              : 76.1 MiB (3%)
Language                                 : German
Default                                  : Yes
Forced                                   : Yes

Audio #2
ID                                       : 3
Format                                   : AC-3
Format/Info                              : Audio Coding 3
Mode extension                           : CM (complete main)
Format settings, Endianness              : Big
Codec ID                                 : A_AC3
Duration                                 : 55mn 26s
Bit rate mode                            : Constant
Bit rate                                 : 384 Kbps
Channel(s)                               : 6 channels
Channel positions                        : Front: L C R, Side: L R, LFE
Sampling rate                            : 48.0 KHz
Bit depth                                : 16 bits
Compression mode                         : Lossy
Stream size                              : 152 MiB (7%)
Language                                 : English
Default                                  : No
Forced                                   : No



Download:
Share-Online.biz Share-Online.bizShare-Online.bizShare-Online.biz | Rapidgator.net Rapidgator.netRapidgator.netRapidgator.net
 

Kommentare