DNS SERVER AENDERNum der staatlichen Zensur zu umgehen. Sollten wir von eurem Provider geseprrt werden, nutzt den TOR BROWSER oder ändert euren DNS SERVER.

Filmwünsche können bei uns im Forum abgegeben werden

Wir Speichern Nicht




 
 
 
Top Releases
Your.Name.German.DL.1080p.Bl...
Your.Name.Gestern.heute.und....
Mr.Church.2016.German.DL.AC3...
Mr.Church.2016.German.DL.AC3...
Red.Sparrow.2018.German.DL.A...
Wunder.2017.MULTI.COMPLETE.B...
Der.andere.Liebhaber.2017.MU...
Hands.of.Stone.Faeuste.aus.S...
Rogue.One.A.Star.Wars.Story....
The.Salesman.2016.German.AC3...

Cinedubs
Pacific.Rim.2.Uprising.Germa...
Pacific.Rim.2.Uprising.Germa...
Feinde.Hostiles.German.DL.AC...
Feinde.Hostiles.German.DL.AC...
Renegades.German.AC3MD.DL.10...
Renegades.German.AC3MD.DL.72...
Jawbone.German.DL.AC3.Dubbed...
Jawbone.German.DL.AC3.Dubbed...
Das.ist.erst.der.Anfang.Germ...
Das.ist.erst.der.Anfang.Germ...

Neuerscheinungen 2017-18
Havenhurst.2016.German.1080p...
Havenhurst.2016.German.720p....
Havenhurst.2016.German.DL.10...
Havenhurst.2016.DUAL.COMPLET...
Fifty.Shades.of.Grey.Befreit...
Ausloeschung.2018.German.AC3...
Ausloeschung.2018.German.AC3...
Bullyparade.Der.Film.2017.Ge...
Bullyparade.Der.Film.2017.Ge...
Cargo.2017.German.Dubbed.DL....

XXX
RydenArmani.17.07.26.Cotton....
TheLifeErotic.18.03.16.Maari...
Throated.18.03.16.Anna.De.Vi...
RydenArmani.18.02.03.Sweethe...
Spizoo.18.03.17.Samantha.Ron...
PrivateSociety.18.03.19.Bren...
PublicPickUps.18.03.17.Xiann...
SpyFam.18.03.19.Emily.Willis...
TheWhiteBoxxx.18.03.17.Natal...
Spizoo.18.03.21.Maxim.Law.Vs...
RodneyMoore.18.03.13.Kat.Lix...
PropertySex.18.03.16.Lily.La...
ThirdMovies.My.Moms.Dark.Sec...
RealWifeStories.18.03.20.Kay...
RydenArmani.17.12.20.Christm...
PublicAgent.18.03.20.Dayana....
TheLifeErotic.18.03.18.Layla...
RydenArmani.17.11.12.Anal.Pl...
RodneyMoore.18.03.14.Lindy.L...
RydenArmani.17.10.07.Wednesd...

3D
Zombies.Ueberlebe.die.Untote...
Norwegen.3D.2013.GERMAN.DL.D...
Norwegen.3D.2013.GERMAN.DOKU...
Jumanji.Willkommen.im.Dschun...
Jumanji.Welcome.To.The.Jungl...
Abraham.Lincoln.Vampire.Hunt...
Norwegen.3D.2013.MULTi.COMPL...
Star.Wars.Episode.VIII.Die.l...
Star.Wars.Episode.VIII.Die.l...
Star.Wars.Episode.VIII.Die.l...
Jumanji.Welcome.To.The.Jungl...
Star.Wars.The.Last.Jedi.2017...
Final.Storm.Der.Untergang.de...
Final.Storm.Der.Untergang.de...
Jumanji.Willkommen.im.Dschun...

Old_Stuff
Zeit.der.Zaertlichkeit.1983....
Zeit.der.Zaertlichkeit.1983....
Regular.Show.S01.1080p.BluRa...
Ostfriesisch.fuer.Anfaenger....
Planet.der.Affen.Prevolution...
Final.Fantasy.VII.Advent.Chi...
City.Slickers.2.1994.German....
R.I.P.D.Rest.in.Peace.Depart...
The.Hornets.Nest.2014.LIMITE...
Korengal.2014.DOCU.1080p.Blu...
The.Transporter.Refueled.201...
Transporter.3.2008.DUAL.COMP...
Transporter.The.Mission.DC.2...
Transporter.2002.DUAL.COMPLE...
Am.gruenen.Rand.der.Welt.Far...

Filme
Ein.ganz.verrueckter.Freitag...
Patrouillenboot.PT.109.1963....
Nina.2016.German.DL.1080p.Bl...
The.Quest.Die.Serie.S03.DUAL...
Assault.on.Precinct.13.-.Ans...
MotoGP.Moto2.Moto3.Saison.20...
MotoGP.Moto2.Moto3.Saison.20...
Irre.sind.maennlich.German.1...
Irre.sind.maennlich.2014.Ger...
Tapeheads.-.Verrueckt.auf.Vi...
Aus.dem.Nichts.2017.German.1...
Der.Hobbit.Die.Schlacht.Der....
Letters.From.Iwo.Jima.2006.M...
Shameless.US.S07D01+2.DUAL.C...
Meine.Stiefmutter.ist.ein.Al...
Harold.und.Kumar.2.Flucht.au...
127.Hours.2010.German.AC3.DL...
Indiana.Jones.Jaeger.des.ver...
Atemlos.Gefaehrliche.Wahrhei...
Charleston.Zwei.Faeuste.raeu...
Charleston.Zwei.Faeuste.raeu...
Der.Pakt.der.Woelfe.DC.2001....
Oceans.Eleven.Open.Matte.200...
Extreme.Ops.2002.German.DL.A...

 
 
Spacewalker.2017.3D.HSBS.German.1080p.BluRay.x264-BluRHD
Jahr: 2017
Genre: Adventure, Drama, History
Sprache: Deutsch DTS
Laufzeit: 2h 17mn
Bitrate: 9 449 Kbps
Format: MKV
Größe: 9.06 GiB
Release:

Beschreibung:

Im Zuge des Kalten Krieges entspinnt sich ein Wettrennen zwischen den USA und der UdSSR, den Kosmos zu erschließen. Die UdSSR scheint 1965 ihren Vorsprung weiter auszubauen, doch zwei Wochen vor dem geplanten Start einer Mission für den ersten Weltraumspaziergang eines Menschen in der Geschichte explodiert das Prüfungsschiff. Zeit, die Gründe dafür ausfindig zu machen, gibt es nicht. Das Schicksal der russischen Raumfahrt liegt nun in den Pilotenhänden Pavel Beljajevs (Konstantin Khabenskiy) und seines jüngeren Partners Aleksej Leonov (Evgeniy Mironov). Sie sind bereit, für ihre Nation Heldenstatus zu erringen, doch längst sind noch nicht alle Hürden genommen. Denn die vorangegangene Explosion ist nicht der einzige Rückschlag, den die Verantwortlichen im Zuge dieser Mission einstecken müssen…



Downloadlink fehlt leider.


Complete name : bhd-spwalk.hsbs-1080p.mkv Format : Matroska Format version : Version 4 / Version 2 File size : 9.06 GiB Duration : 2h 17mn Overall bit rate : 9 449 Kbps Encoded date : UTC 2018-01-28 08:04:40 Writing application : mkvmerge v8.8.0 ('Wind at my back') 32bit Writing library : libebml v1.3.3 + libmatroska v1.4.4 DURATION : 02:11:55.490000000 NUMBER_OF_FRAMES : 35 NUMBER_OF_BYTES : 280720 _STATISTICS_WRITING_APP : mkvmerge v8.8.0 ('Wind at my back') 32bit _STATISTICS_WRITING_DATE_UTC : 2018-01-28 08:04:40 _STATISTICS_TAGS : BPS DURATION NUMBER_OF_FRAMES NUMBER_OF_BYTES Video ID : 1 Format : AVC Format/Info : Advanced Video Codec Format profile : High@L4.1 Format settings, CABAC : Yes Format settings, ReFrames : 2 frames Codec ID : V_MPEG4/ISO/AVC Duration : 2h 17mn Bit rate : 7 752 Kbps Width : 1 920 pixels Height : 816 pixels Display aspect ratio : 2.35:1 Frame rate mode : Constant Frame rate : 23.976 fps Color space : YUV Chroma subsampling : 4:2:0 Bit depth : 8 bits Scan type : Progressive Bits/(Pixel*Frame) : 0.206 Stream size : 7.43 GiB (82%) Writing library : x264 core 142 Encoding settings : cabac=1 / ref=1 / deblock=1:-1:-1 / analyse=0x3:0 / me=hex / subme=5 / psy=0 / mixed_ref=0 / me_range=16 / chroma_me=1 / trellis=0 / 8x8dct=1 / cqm=0 / deadzone=21,11 / fast_pskip=0 / chroma_qp_offset=0 / threads=32 / lookahead_threads=6 / sliced_threads=0 / nr=0 / decimate=1 / interlaced=0 / bluray_compat=0 / constrained_intra=0 / bframes=2 / b_pyramid=0 / b_adapt=1 / b_bias=0 / direct=1 / weightb=0 / open_gop=0 / weightp=0 / keyint=24 / keyint_min=13 / scenecut=40 / intra_refresh=0 / rc=crf / mbtree=0 / crf=18.0 / qcomp=0.60 / qpmin=0 / qpmax=69 / qpstep=4 / ip_ratio=1.40 / pb_ratio=1.30 / aq=1:1.00 Default : Yes Forced : No Color primaries : BT.709 Transfer characteristics : BT.709 Matrix coefficients : BT.709 Audio ID : 2 Format : DTS Format/Info : Digital Theater Systems Mode : 16 Format settings, Endianness : Big Codec ID : A_DTS Duration : 2h 17mn Bit rate mode : Constant Bit rate : 1 509 Kbps Channel(s) : 6 channels Channel positions : Front: L C R, Side: L R, LFE Sampling rate : 48.0 KHz Bit depth : 24 bits Compression mode : Lossy Stream size : 1.45 GiB (16%) Title : German Language : German Default : Yes Forced : No Text ID : 3 Format : VobSub Muxing mode : zlib Codec ID : S_VOBSUB Codec ID/Info : The same subtitle format used on DVDs Title : German forced Language : German Default : Yes Forced : Yes


Download:
Share Online Share OnlineShare OnlineShare Online
 

Kommentare