DNS SERVER AENDERNum der staatlichen Zensur zu umgehen. Sollten wir von eurem Provider geseprrt werden, nutzt den TOR BROWSER oder ändert euren DNS SERVER.

Filmwünsche können bei uns im Forum abgegeben werden

Wir Speichern Nicht




 
 
 
Top Releases
Die.letzten.Krieger.2017.MUL...
Maudie.2016.MULTi.COMPLETE.B...
London.to.Brighton.2006.Germ...
London.to.Brighton.2006.Germ...
Kleine.schmutzige.Tricks.200...
Kleine.schmutzige.Tricks.200...
Daddys.Home.2.Mehr.Vaeter.me...
Daddys.Home.2.Mehr.Vaeter.me...
Es.2017.German.DL.2160p.UHD....
Daddys.Home.2.Mehr.Vaeter.me...

Cinedubs
The.Disaster.Artist.2017.Ger...
The.Disaster.Artist.2017.Ger...
Thor.Tag.der.Entscheidung.20...
Thor.Tag.der.Entscheidung.20...
Golden.Exits.2018.German.AC3...
Golden.Exits.2018.German.AC3...
Pitch.Perfect.3.German.DL.AC...
Pitch.Perfect.3.German.DL.AC...
Three.Billboards.Outside.Ebb...
Three.Billboards.Outside.Ebb...

Neuerscheinungen 2017-18
The.Dead.Zone.1983.DUAL.COMP...
Mohawk.2017.MULTi.COMPLETE.B...
Killer.Klowns.-.From.outer.S...
Wiedersehen.in.Howards.End.1...
Avanti.Avanti.1972.DUAL.COMP...
Finding.Normal.2013.German.D...
Finding.Normal.2013.German.D...
Mohawk.2017.German.720p.BluR...
Lady.Bloodfight.2016.MULTi.C...
Thor.Tag.der.Entscheidung.20...

XXX
NeighborAffair.18.02.07.Aidr...
NubileFilms.18.02.07.Nancy.A...
POVBitch.18.02.07.Foxy.Sanie...
NyxonsBondageFiles.Bitch.Get...
PlayboyPlus.18.02.08.Chucha....
MyFriendsHotGirl.18.02.06.Qu...
Nubiles.18.02.06.Emily.Crush...
Old-n-Young.18.02.08.Eveline...
NyxonsBondageFiles.But.I.Fir...
OnlyBlowJob.18.02.08.Jade.Pr...
Passion-HD.18.02.07.Rebel.Ly...
NewSensations.18.02.07.Elena...
PennyPaxLive.18.02.02.Penny....
MyFriendsHotMom.18.02.08.Ver...
Pantyhosed4U.18.02.07.Sophia...
MomsTeachSex.18.02.08.Dani.J...
OnlyTeenBlowJobs.18.02.08.Be...
NyxonsBondageFiles.Bound.Bal...
Nubiles.18.01.31.Emily.Crush...
MommyBlowsBest.18.02.07.Blat...

3D
Piranha.2.3D.2012.DUAL.COMPL...
The.Ark.3D.2013.DUAL.COMPLET...
Blade.Runner.2049.3D.2017.MU...
Blade.Runner.2049.3D.2017.Ge...
The.Crucifixion.3D.2017.Germ...
The.Crucifixion.3D.2017.MULT...
The.Lego.Ninjago.Movie.2017....
The.Lego.Ninjago.Movie.2017....
Spacewalker.2017.3D.HSBS.Ger...
Spacewalker.2017.3D.HOU.Germ...
Blade.Runner.2049.2017.3D.MU...
Geostorm.3D.2017.German.DL.1...
Geostorm.3D.2017.HSBS.German...
Geostorm.3D.2017.HOU.German....
Blade.Runner.2049.3D.HSBS.Ge...

Old_Stuff
Kevin.-.Allein.zu.Haus.4K.Re...
American.Sniper.2014.MULTi.C...
Hana-bi.Feuerblume.1997.Germ...
Memphis.Belle.1990.German.DL...
Im.Schatten.des.Mondes.Germa...
Tomb.Raider.2001.DUAL.COMPLE...
Tomb.Raider.Die.Wiege.des.Le...
Party.Animals.3.German.AC3.7...
The.Rocky.Horror.Picture.Sho...
Die.Fliege.1986.German.DTS.1...
Mimic.2.2001.German.DD5.1D.D...
The.Tournament.UNCUT.2009.Ge...
Dr.House.S08.German.720p.Blu...
Dr.House.S07.German.720p.Blu...
Dr.House.S06.German.720p.Blu...

Filme
Ripper.Street.S05D01+2.DUAL....
Bright.2017.German.DL.2160p....
Jigsaw.2017.German.Dubbed.DT...
Shorebreak.The.Clark.Little....
Apollo.13.1995.German.DL.216...
Gods.of.Egypt.2016.GERMAN.DL...
The.LEGO.Batman.Movie.2017.G...
Daddys.Home.Ein.Vater.zu.vie...
Daddys.Home.Ein.Vater.zu.vie...
Navy.CIS.New.Orleans.S03.Ger...
Navy.CIS.New.Orleans.S03.Ger...
Emerald.City.2017.S01.German...
Emerald.City.2017.S01.German...
Scorpion.S04.GERMAN.DUBBED.D...
Scorpion.S04.GERMAN.DUBBED.D...
X-Men.Erste.Entscheidung.201...
Jupiter.Ascending.2015.Germa...
Get.Shorty.S01.German.DD51.S...
Get.Shorty.S01.German.DD51.S...
Babylon.Berlin.S02.COMPLETE....
Babylon.Berlin.S02.COMPLETE....
Babylon.Berlin.S01.COMPLETE....
Babylon.Berlin.S01.COMPLETE....
California.Highway.1978.Germ...

 
 
American.Crime.Story.S02.GERMAN.DUBBED.720p.HDTV.x264-ZZGtv
Jahr: 2017
Genre: Biographie | Drama | Krimi
Sprache: Deutsch AC3
Laufzeit: 50min je Folge
Bitrate: 3500 Kbps
Format: MKV
Größe: 1,3 GB je Folge
Release:

Beschreibung:

Miami Beach, 15. Juli 1997: Stardesigner Gianni Versace (Edgar Ramirez) wird vor seiner Villa erschossen. Aber warum suchte sich Serienkiller Andrew Cunanan (Darren Criss) ihn als weiteres Opfer aus?

 

enthaltene Folgen:

American.Crime.Story.S02E01.The.Man.Who.Would.Be.Vogue.GERMAN.DUBBED.720p.HDTV.x264-ZZGtv

American.Crime.Story.S02E02.Manhunt.GERMAN.DUBBED.720p.HDTV.x264-ZZGtv

American.Crime.Story.S02E03.Eine.zufaellige.Bluttat.GERMAN.DUBBED.720p.HDTV.x264-ZZGtv

American.Crime.Story.S02E04.Die.Huette.am.See.GERMAN.DUBBED.720p.HDTV.x264-ZZGtv NEU



General
Complete name                            : American.Crime.Story.S02E01.The.Man.Who.Would.Be.Vogue.GERMAN.DUBBED.720p.HDTV.x264-ZZGtv\zzgtv-acs-s02e01.mkv
Format                                   : Matroska
Format version                           : Version 2
File size                                : 1.33 GiB
Duration                                 : 50mn 25s
Overall bit rate                         : 3 788 Kbps
Encoded date                             : UTC 2018-01-29 13:35:57
Writing application                      : mkvmerge v3.1.0 ('HELLO KITTY') built on Feb 16 2010 03:12:16
Writing library                          : libebml v0.7.9 + libmatroska v0.8.1

Video
ID                                       : 1
Format                                   : AVC
Format/Info                              : Advanced Video Codec
Format profile                           : High@L4.1
Format settings, CABAC                   : Yes
Format settings, ReFrames                : 5 frames
Codec ID                                 : V_MPEG4/ISO/AVC
Duration                                 : 50mn 25s
Bit rate                                 : 3 520 Kbps
Width                                    : 1 280 pixels
Height                                   : 720 pixels
Display aspect ratio                     : 16:9
Frame rate mode                          : Constant
Frame rate                               : 25.000 fps
Original frame rate                      : 23.976 fps
Color space                              : YUV
Chroma subsampling                       : 4:2:0
Bit depth                                : 8 bits
Scan type                                : Progressive
Bits/(Pixel*Frame)                       : 0.153
Stream size                              : 1.24 GiB (93%)
Writing library                          : x264 core 152 r2851 ba24899
Encoding settings                        : cabac=1 / ref=5 / deblock=1:0:0 / analyse=0x3:0x113 / me=hex / subme=8 / psy=1 / psy_rd=1.00:0.00 / mixed_ref=1 / me_range=16 / chroma_me=1 / trellis=2 / 8x8dct=1 / cqm=0 / deadzone=21,11 / fast_pskip=1 / chroma_qp_offset=-2 / threads=22 / lookahead_threads=3 / sliced_threads=0 / nr=0 / decimate=1 / interlaced=0 / bluray_compat=0 / constrained_intra=0 / bframes=3 / b_pyramid=2 / b_adapt=1 / b_bias=0 / direct=3 / weightb=1 / open_gop=0 / weightp=2 / keyint=250 / keyint_min=23 / scenecut=40 / intra_refresh=0 / rc_lookahead=50 / rc=crf / mbtree=1 / crf=18.0 / qcomp=0.60 / qpmin=0 / qpmax=69 / qpstep=4 / ip_ratio=1.40 / aq=1:1.00
Default                                  : Yes
Forced                                   : No
Matrix coefficients                      : BT.709

Audio
ID                                       : 2
Format                                   : AC-3
Format/Info                              : Audio Coding 3
Mode extension                           : CM (complete main)
Format settings, Endianness              : Big
Codec ID                                 : A_AC3
Duration                                 : 50mn 25s
Bit rate mode                            : Constant
Bit rate                                 : 192 Kbps
Channel(s)                               : 2 channels
Channel positions                        : Front: L R
Sampling rate                            : 48.0 KHz
Bit depth                                : 16 bits
Compression mode                         : Lossy
Stream size                              : 69.3 MiB (5%)
Default                                  : Yes
Forced                                   : No



Download:
Share-Online.biz Share-Online.bizShare-Online.bizShare-Online.biz | Rapidgator.net Rapidgator.netRapidgator.netRapidgator.net
 

Kommentare