DNS SERVER AENDERNum der staatlichen Zensur zu umgehen. Sollten wir von eurem Provider geseprrt werden, nutzt den TOR BROWSER oder ändert euren DNS SERVER.

Filmwünsche können bei uns im Forum abgegeben werden

Wir Speichern Nicht




 
 
 
Top Releases
Thor.Tag.der.Entscheidung.20...
Thor.Tag.der.Entscheidung.20...
Thor.Tag der.Entscheidung.4K...
Die.letzten.Krieger.2017.MUL...
Maudie.2016.MULTi.COMPLETE.B...
London.to.Brighton.2006.Germ...
London.to.Brighton.2006.Germ...
Kleine.schmutzige.Tricks.200...
Kleine.schmutzige.Tricks.200...
Daddys.Home.2.Mehr.Vaeter.me...

Cinedubs
Mord.im.Orient.Express.2017....
Mord.im.Orient.Express.2017....
The.Disaster.Artist.2017.Ger...
The.Disaster.Artist.2017.Ger...
Golden.Exits.2018.German.AC3...
Golden.Exits.2018.German.AC3...
Pitch.Perfect.3.German.DL.AC...
Pitch.Perfect.3.German.DL.AC...
Three.Billboards.Outside.Ebb...
Three.Billboards.Outside.Ebb...

Neuerscheinungen 2017-18
Evil.Toons.1992.COMPLETE.BLU...
That.thing.you.do.1996.COMPL...
Family.Business.1989.COMPLET...
Kuess.mich.Zombie.Make.Out.w...
Ich.war.eine.maennliche.Krie...
Die.Asche.meiner.Mutter.Ange...
Howards.End.1992.COMPLETE.UH...
Extrablatt.The.Front.Page.19...
The.Dead.Zone.1983.DUAL.COMP...
Mohawk.2017.MULTi.COMPLETE.B...

XXX
Nubiles.18.02.06.Desiree.Mar...
OyeLoca.18.02.06.Lucia.Ferna...
Nubiles.18.01.30.Lucette.Nic...
NeighborAffair.18.02.07.Aidr...
NubileFilms.18.02.07.Nancy.A...
POVBitch.18.02.07.Foxy.Sanie...
NyxonsBondageFiles.Bitch.Get...
PlayboyPlus.18.02.08.Chucha....
MyFriendsHotGirl.18.02.06.Qu...
Nubiles.18.02.06.Emily.Crush...
Old-n-Young.18.02.08.Eveline...
NyxonsBondageFiles.But.I.Fir...
OnlyBlowJob.18.02.08.Jade.Pr...
Passion-HD.18.02.07.Rebel.Ly...
NewSensations.18.02.07.Elena...
PennyPaxLive.18.02.02.Penny....
MyFriendsHotMom.18.02.08.Ver...
Pantyhosed4U.18.02.07.Sophia...
MomsTeachSex.18.02.08.Dani.J...
OnlyTeenBlowJobs.18.02.08.Be...

3D
Piranha.2.3D.2012.DUAL.COMPL...
The.Ark.3D.2013.DUAL.COMPLET...
Blade.Runner.2049.3D.2017.MU...
Blade.Runner.2049.3D.2017.Ge...
The.Crucifixion.3D.2017.Germ...
The.Crucifixion.3D.2017.MULT...
The.Lego.Ninjago.Movie.2017....
The.Lego.Ninjago.Movie.2017....
Spacewalker.2017.3D.HSBS.Ger...
Spacewalker.2017.3D.HOU.Germ...
Blade.Runner.2049.2017.3D.MU...
Geostorm.3D.2017.German.DL.1...
Geostorm.3D.2017.HSBS.German...
Geostorm.3D.2017.HOU.German....
Blade.Runner.2049.3D.HSBS.Ge...

Old_Stuff
Kevin.-.Allein.zu.Haus.4K.Re...
American.Sniper.2014.MULTi.C...
Hana-bi.Feuerblume.1997.Germ...
Memphis.Belle.1990.German.DL...
Im.Schatten.des.Mondes.Germa...
Tomb.Raider.2001.DUAL.COMPLE...
Tomb.Raider.Die.Wiege.des.Le...
Party.Animals.3.German.AC3.7...
The.Rocky.Horror.Picture.Sho...
Die.Fliege.1986.German.DTS.1...
Mimic.2.2001.German.DD5.1D.D...
The.Tournament.UNCUT.2009.Ge...
Dr.House.S08.German.720p.Blu...
Dr.House.S07.German.720p.Blu...
Dr.House.S06.German.720p.Blu...

Filme
Preis.der.Macht.-.True.Color...
The.Avengers.2012.UNZENSIERT...
Fat.Pizza.2003.German.DL.108...
Fighting.Beat.2.2009.German....
ZDFzoom.Heirat.ohne.Liebe.GE...
Schneemann.2017.German.DL.AC...
Lord.of.Illusions.DC.1995.Ge...
Up.World.-.Mein.Kumpel.der.K...
Womb.2010.German.DL.AC3D.108...
Wenn.man.vom.Teufel.spricht....
ZDFzoom.Das.Drehbuch.des.Ter...
Ich.war.eine.maennliche.Krie...
Ich.war.eine.maennliche.Krie...
Wiedersehen.in.Howards.End.1...
Wiedersehen.in.Howards.End.1...
Road.Trip.Beer.Pong.Uncut.20...
ZDFzoom.Geldmaschine.YouTube...
The.Fighters.2008.Unrated.Ex...
23.Schritte.zum.Abgrund.1956...
23.Schritte.zum.Abgrund.1956...
Auf.der.Reeperbahn.nachts.um...
Auf.der.Reeperbahn.nachts.um...
Der.scharlachrote.Pirat.1976...
Designated.Survivor.S01D01-5...

 
 
The.Lego.Ninjago.Movie.2017.3D.HSBS.German.DTS.DL.1080p.BluRay.x264-LeetHD
Jahr: 2017
Genre: Animation, Action
Sprache: Deutsch DTS | Englisch DTS
Laufzeit: 1h 41mn
Bitrate: 8 223 Kbps
Format: MKV
Größe: 5.83 GiB
Release:

Beschreibung:
Die sechs jungen Ninjas Lloyd (Stimme im Original: Dave Franco), Kai (Michael Peña), Nya (Abbie Jacobson), Jay (Kumail Nanjiani), Zane (Zach Woods) und Cole (Fred Armisen) beschützen ihre Heimatstadt Ninjago City heimlich vor Feinden und Monstern. Dazu nutzen sie ihre besonderen Fähigkeiten und greifen auf ihre Flotte an Mechs zurück. Trainiert werden sie von ihrem Lehrmeister Wu (Jackie Chan), der Lloyds Onkel ist und noch dazu ein ziemlicher Sprücheklopfer. Doch die Teenager bleiben bei ihren Heldentaten unerkannt und gelten tagsüber an der Highschool als Nerds und Geeks, die von vielen Mitschülern ignoriert werden. Noch dazu müssen sie sich nun mit dem bösen Warlord Garmadon (Justin Theroux) herumschlagen – Lloyds Vater! Und um in der großen Entscheidungsschlacht bestehen zu können, müssen die sechs Ninjas erst noch lernen, als Team zu agieren...


Complete name                            : lhd-ninjago.hsbs-1080p.mkv
Format                                   : Matroska
Format version                           : Version 4 / Version 2
File size                                : 5.83 GiB
Duration                                 : 1h 41mn
Overall bit rate                         : 8 223 Kbps
Movie name                               : Ninjago HSBS
Encoded date                             : UTC 2018-02-02 06:41:08
Writing application                      : mkvmerge v9.7.1 ('Pandemonium') 64bit
Writing library                          : libebml v1.3.4 + libmatroska v1.4.5
DURATION                                 : 01:38:36.745000000
NUMBER_OF_FRAMES                         : 44
NUMBER_OF_BYTES                          : 209167
_STATISTICS_WRITING_APP                  : mkvmerge v9.7.1 ('Pandemonium') 64bit
_STATISTICS_WRITING_DATE_UTC             : 2018-02-02 06:41:08
_STATISTICS_TAGS                         : BPS DURATION NUMBER_OF_FRAMES NUMBER_OF_BYTES

Video
ID                                       : 1
Format                                   : AVC
Format/Info                              : Advanced Video Codec
Format profile                           : High@L4.1
MultiView_Count                          : 2
MultiView_Layout                         : Side by Side (left eye first)
Format settings, CABAC                   : Yes
Format settings, ReFrames                : 5 frames
Codec ID                                 : V_MPEG4/ISO/AVC
Duration                                 : 1h 41mn
Bit rate                                 : 5 041 Kbps
Width                                    : 1 920 pixels
Height                                   : 804 pixels
Display aspect ratio                     : 16:9
Original display aspect ratio            : 2.40:1
Frame rate mode                          : Constant
Frame rate                               : 23.976 fps
Color space                              : YUV
Chroma subsampling                       : 4:2:0
Bit depth                                : 8 bits
Scan type                                : Progressive
Bits/(Pixel*Frame)                       : 0.136
Stream size                              : 3.57 GiB (61%)
Writing library                          : x264 core 152 r2851 ba24899
Encoding settings                        : cabac=1 / ref=5 / deblock=1:0:0 / analyse=0x3:0x113 / me=hex / subme=8 / psy=1 / psy_rd=1.00:0.00 / mixed_ref=1 / me_range=16 / chroma_me=1 / trellis=2 / 8x8dct=1 / cqm=0 / deadzone=21,11 / fast_pskip=1 / chroma_qp_offset=-2 / threads=12 / lookahead_threads=2 / sliced_threads=0 / nr=0 / decimate=1 / interlaced=0 / bluray_compat=0 / constrained_intra=0 / bframes=3 / b_pyramid=2 / b_adapt=1 / b_bias=0 / direct=3 / weightb=1 / open_gop=0 / weightp=2 / keyint=250 / keyint_min=23 / scenecut=40 / intra_refresh=0 / rc_lookahead=50 / rc=crf / mbtree=1 / crf=18.0 / qcomp=0.60 / qpmin=0 / qpmax=69 / qpstep=4 / vbv_maxrate=62500 / vbv_bufsize=78125 / crf_max=0.0 / nal_hrd=none / filler=0 / frame-packing=3 / ip_ratio=1.40 / aq=1:1.00
Default                                  : Yes
Forced                                   : No
Matrix coefficients                      : BT.709

Audio #1
ID                                       : 2
Format                                   : DTS
Format/Info                              : Digital Theater Systems
Mode                                     : 16
Format settings, Endianness              : Big
Codec ID                                 : A_DTS
Duration                                 : 1h 41mn
Bit rate mode                            : Constant
Bit rate                                 : 1 509 Kbps
Channel(s)                               : 6 channels
Channel positions                        : Front: L C R, Side: L R, LFE
Sampling rate                            : 48.0 KHz
Bit depth                                : 16 bits
Compression mode                         : Lossy
Stream size                              : 1.07 GiB (18%)
Language                                 : German
Default                                  : Yes
Forced                                   : No

Audio #2
ID                                       : 3
Format                                   : DTS
Format/Info                              : Digital Theater Systems
Mode                                     : 16
Format settings, Endianness              : Big
Codec ID                                 : A_DTS
Duration                                 : 1h 41mn
Bit rate mode                            : Constant
Bit rate                                 : 1 509 Kbps
Channel(s)                               : 6 channels
Channel positions                        : Front: L C R, Side: L R, LFE
Sampling rate                            : 48.0 KHz
Bit depth                                : 16 bits
Compression mode                         : Lossy
Stream size                              : 1.07 GiB (18%)
Language                                 : English
Default                                  : No
Forced                                   : No

Text
ID                                       : 4
Format                                   : PGS
Muxing mode                              : zlib
Codec ID                                 : S_HDMV/PGS
Codec ID/Info                            : The same subtitle format used on BDs/HD-DVDs
Title                                    : forced
Language                                 : German
Default                                  : Yes
Forced                                   : Yes


Download:
Share Online Share OnlineShare OnlineShare Online
 

Kommentare