Die aktuelle Sicherheitswarnung bei Filecrypt kann ignoriert werden! Man kümmert sich um das Problem!

DNS SERVER AENDERNum der staatlichen Zensur zu umgehen. Sollten wir von eurem Provider geseprrt werden, nutzt den TOR BROWSER oder ändert euren DNS SERVER.

Filmwünsche können bei uns im Forum abgegeben werden

Wir Speichern Nicht




 
 
 
Top Releases
Pitch.Perfect.3.2017.MULTI.C...
Pitch.Perfect.2012.MULTi.COM...
Allied.2016.MULTi.COMPLETE.U...
Die.Unsichtbaren.Wir.wollen....
Bill.Was.fuer.ein.Theater.Bi...
Bill.Was.fuer.ein.Theater.20...
Bill.Was.fuer.ein.Theater.20...
Lady.Macbeth.2016.MULTI.COMP...
Lady.Macbeth.2016.GERMAN.DL....
Lady.Macbeth.2016.GERMAN.720...

Cinedubs
The.Disaster.Artist.2017.Ger...
The.Disaster.Artist.2017.Ger...
Peter.Hase.2018.German.MD.DL...
Peter.Hase.2018.German.MD.DL...
Pacific.Rim.2.Uprising.Germa...
Pacific.Rim.2.Uprising.Germa...
Winchester.2018.German.AC3MD...
Winchester.2018.German.AC3MD...
Red.Sparrow.German.DL.AC3.Du...
Red.Sparrow.German.DL.AC3.Du...

Neuerscheinungen 2017-18
Caprona.2.Menschen.die.die.Z...
Caprona.2.Menschen.die.die.Z...
Deep.Blue.Sea.2.2018.German....
Deep.Blue.Sea.2.2018.German....
Die.Befreiung.Teil.1-5.1970....
Die.Befreiung.Teil.1-5.1970....
Deep.Blue.Sea.2.2018.MULTI.C...
Death.Racers.2008.GERMAN.DL....
Sugar.Mountain.Spurlos.in.Al...
Sugar.Mountain.Spurlos.in.Al...

XXX
WankItNow.18.03.17.Dolly.Suc...
GetYourKneesDirty.18.03.12.K...
WebYoung.18.03.16.Elsa.Jean....
Geki.Ranko.Yuki.Aida.XXX.108...
BlackSinner.17.06.20.Sheena....
ATKHairy.18.03.19.Niki.Snow....
GermanGooGirls.18.03.16.Ria....
Geki.Ranko.Yuki.Aida.XXX.720...
Watch4Beauty.18.03.21.Angel....
BlackSinner.17.06.20.Rochell...
WhenGirlsPlay.18.03.20.Amili...
Vixen.18.03.20.Tori.Black.XX...
YoungBusty.17.12.25.Jeanne.X...
YoungBusty.17.12.18.Nicole.L...
GhettoGaggers.E407.Shae.Spre...
YoungBusty.17.12.04.Nikki.Dr...
WetAndPuffy.18.03.19.Lucia.D...
Blacked.18.03.16.Abella.Dang...
GhettoGaggers.E406.Sharee.2....
YoungBusty.17.12.11.Anabelle...

3D
Norwegen.3D.2013.MULTi.COMPL...
Star.Wars.Episode.VIII.Die.l...
Star.Wars.Episode.VIII.Die.l...
Star.Wars.Episode.VIII.Die.l...
Jumanji.Welcome.To.The.Jungl...
Star.Wars.The.Last.Jedi.2017...
Final.Storm.Der.Untergang.de...
Final.Storm.Der.Untergang.de...
Jumanji.Willkommen.im.Dschun...
Star.Wars.Episode.VIII.Die.l...
Star.Wars.Episode.VIII.Die.l...
Nightmare.Schlaf.nicht.ein.2...
Justice.League.3D.2017.HOU.G...
Coco.Lebendiger.als.das.Lebe...
Coco.Lebendiger.als.das.Lebe...

Old_Stuff
Lawless.Die.Gesetzlosen.2012...
Cargo.Da.draussen.bist.du.al...
Nachts.im.Museum.2.2009.Germ...
Nachts.im.Museum.2006.German...
North.Country.Kaltes.Land.20...
Fuenf.Freunde.German.1080p.B...
Sin.City.2005.Theatrical.Cut...
Nuts.Durchgedreht.1987.Germa...
Antarctica.Gefangen.Im.Eis.2...
Terminator.2.Tag.Der.Abrechn...
Winters.Tale.2014.German.108...
Kampf.Der.Titanen.2010.Germa...
Bibi.und.Tina.Tohuwabohu.Tot...
Bibi.und.Tina.voll.Verhext.2...
Cargo.Da.draussen.bist.du.al...

Filme
Pitch.Perfect.2.2015.German....
Pitch.Perfect.2.2015.German....
Elysium.German.DL.1080p.BluR...
Elysium.German.720p.BluRay.x...
Der.Atemzug.2009.German.SUBB...
Der.Atemzug.2009.German.SUBB...
Elysium.2013.German.DL.1080p...
Pitch.Perfect.2012.German.DL...
Pitch.Perfect.2012.German.DL...
How.to.be.Das.Leben.ist.kein...
Heroes.of.War.Assembly.Germa...
Schuldig.bei.Verdacht.1991.G...
Fear.The.Walking.Dead.S04.Ge...
Fear.The.Walking.Dead.S04.Ge...
Blood.Drive.S01.GERMAN.DUBBE...
Westworld.S02.German.Dubbed....
Westworld.S02.German.Dubbed....
Legion.S02.German.DL.1080p.H...
Legion.S02.German.DL.720p.HD...
Swimming.Pool.2003.German.DL...
Good.Will.Hunting.1997.Germa...
Dreimal.ist.einmal.zu.viel.2...
Helldriver.2010.German.1080p...
Bye.Bye.Love.1995.German.AC3...

 
 
Magic.in.the.Moonlight.German.DL.1080p.BluRay.x264-EXQUiSiTE
Jahr: 2014
Genre: Komödie
Sprache: Deutsch DTS | Englisch DTS
Laufzeit: 1h 45mn
Bitrate: 7 125 Kbps
Format: MKV
Größe: 5.27 GiB
Release:

Beschreibung:

Als chinesischer Zauberkünstler feiert der arrogant-kühle Engländer Stanley Crawford europaweit Erfolge. Der Mann, der nicht an spiritistische Spielereien glaubt, hält es für ein Leichtes, die junge Sophie Baker auf Bitte eines Freundes mit ihrer Hellseherei des Schwindels zu überführen. Die ist aber nicht leicht zu knacken und langsam verliert der Pragmatiker seine Skepsis, zumal die hübsche Lady nicht nur mit übersinnlichem Wissen und Kontakten zur Totenwelt punktet, sondern auch mit charmanter Verführungskunst.






Complete name : exq-allislost-1080p.mkv Format : Matroska Format version : Version 4 / Version 2 File size : 5.27 GiB Duration : 1h 45mn Overall bit rate : 7 125 Kbps Encoded date : UTC 2014-04-15 19:34:24 Writing application : mkvmerge v6.8.0 ('Theme for Great Cities') 64bit built on Mar 2 2014 21:34:26 Writing library : libebml v1.3.0 + libmatroska v1.4.1 Video ID : 1 Format : AVC Format/Info : Advanced Video Codec Format profile : High@L4.1 Format settings, CABAC : Yes Format settings, ReFrames : 5 frames Codec ID : V_MPEG4/ISO/AVC Duration : 1h 45mn Bit rate : 4 706 Kbps Width : 1 920 pixels Height : 800 pixels Display aspect ratio : 2.40:1 Frame rate mode : Constant Frame rate : 23.976 fps Color space : YUV Chroma subsampling : 4:2:0 Bit depth : 8 bits Scan type : Progressive Bits/(Pixel*Frame) : 0.128 Stream size : 3.48 GiB (66%) Writing library : x264 core 142 r2409 d6b4e63 Encoding settings : cabac=1 / ref=5 / deblock=1:-1:-1 / analyse=0x3:0x133 / me=umh / subme=7 / psy=1 / psy_rd=1.00:0.15 / mixed_ref=1 / me_range=16 / chroma_me=1 / trellis=1 / 8x8dct=1 / cqm=0 / deadzone=21,11 / fast_pskip=0 / chroma_qp_offset=-3 / threads=18 / lookahead_threads=3 / sliced_threads=0 / nr=0 / decimate=1 / interlaced=0 / bluray_compat=0 / constrained_intra=0 / bframes=3 / b_pyramid=2 / b_adapt=1 / b_bias=0 / direct=3 / weightb=1 / open_gop=0 / weightp=2 / keyint=240 / keyint_min=23 / scenecut=40 / intra_refresh=0 / rc_lookahead=50 / rc=crf / mbtree=1 / crf=20.0 / qcomp=0.60 / qpmin=10 / qpmax=51 / qpstep=4 / ip_ratio=1.40 / aq=1:1.00 Language : English Default : Yes Forced : No Audio #1 ID : 2 Format : DTS Format/Info : Digital Theater Systems Mode : 16 Format settings, Endianness : Big Codec ID : A_DTS Duration : 1h 45mn Bit rate mode : Constant Bit rate : 768 Kbps Channel(s) : 6 channels Channel positions : Front: L C R, Side: L R, LFE Sampling rate : 48.0 KHz Bit depth : 24 bits Compression mode : Lossy Stream size : 582 MiB (11%) Language : German Default : Yes Forced : No Audio #2 ID : 3 Format : DTS Format/Info : Digital Theater Systems Mode : 16 Format settings, Endianness : Big Codec ID : A_DTS Duration : 1h 45mn Bit rate mode : Constant Bit rate : 1 509 Kbps Channel(s) : 6 channels Channel positions : Front: L C R, Side: L R, LFE Sampling rate : 48.0 KHz Bit depth : 24 bits Compression mode : Lossy Stream size : 1.12 GiB (21%) Language : English Default : No Forced : No Text ID : 4 Format : UTF-8 Codec ID : S_TEXT/UTF8 Codec ID/Info : UTF-8 Plain Text Language : German Default : Yes Forced : Yes


Download:
Share Online Share OnlineShare OnlineShare Online
 

Kommentare