DNS SERVER AENDERNum der staatlichen Zensur zu umgehen. Sollten wir von eurem Provider geseprrt werden, nutzt den TOR BROWSER oder ändert euren DNS SERVER.

Filmwünsche können bei uns im Forum abgegeben werden

Wir Speichern Nicht




 
 
 
Top Releases
Your.Name.German.DL.1080p.Bl...
Your.Name.Gestern.heute.und....
Mr.Church.2016.German.DL.AC3...
Mr.Church.2016.German.DL.AC3...
Red.Sparrow.2018.German.DL.A...
Wunder.2017.MULTI.COMPLETE.B...
Der.andere.Liebhaber.2017.MU...
Hands.of.Stone.Faeuste.aus.S...
Rogue.One.A.Star.Wars.Story....
The.Salesman.2016.German.AC3...

Cinedubs
Pacific.Rim.2.Uprising.Germa...
Pacific.Rim.2.Uprising.Germa...
Feinde.Hostiles.German.DL.AC...
Feinde.Hostiles.German.DL.AC...
Renegades.German.AC3MD.DL.10...
Renegades.German.AC3MD.DL.72...
Jawbone.German.DL.AC3.Dubbed...
Jawbone.German.DL.AC3.Dubbed...
Das.ist.erst.der.Anfang.Germ...
Das.ist.erst.der.Anfang.Germ...

Neuerscheinungen 2017-18
Havenhurst.2016.German.1080p...
Havenhurst.2016.German.720p....
Havenhurst.2016.German.DL.10...
Havenhurst.2016.DUAL.COMPLET...
Fifty.Shades.of.Grey.Befreit...
Ausloeschung.2018.German.AC3...
Ausloeschung.2018.German.AC3...
Bullyparade.Der.Film.2017.Ge...
Bullyparade.Der.Film.2017.Ge...
Cargo.2017.German.Dubbed.DL....

XXX
RydenArmani.17.07.26.Cotton....
TheLifeErotic.18.03.16.Maari...
Throated.18.03.16.Anna.De.Vi...
RydenArmani.18.02.03.Sweethe...
Spizoo.18.03.17.Samantha.Ron...
PrivateSociety.18.03.19.Bren...
PublicPickUps.18.03.17.Xiann...
SpyFam.18.03.19.Emily.Willis...
TheWhiteBoxxx.18.03.17.Natal...
Spizoo.18.03.21.Maxim.Law.Vs...
RodneyMoore.18.03.13.Kat.Lix...
PropertySex.18.03.16.Lily.La...
ThirdMovies.My.Moms.Dark.Sec...
RealWifeStories.18.03.20.Kay...
RydenArmani.17.12.20.Christm...
PublicAgent.18.03.20.Dayana....
TheLifeErotic.18.03.18.Layla...
RydenArmani.17.11.12.Anal.Pl...
RodneyMoore.18.03.14.Lindy.L...
RydenArmani.17.10.07.Wednesd...

3D
Zombies.Ueberlebe.die.Untote...
Norwegen.3D.2013.GERMAN.DL.D...
Norwegen.3D.2013.GERMAN.DOKU...
Jumanji.Willkommen.im.Dschun...
Jumanji.Welcome.To.The.Jungl...
Abraham.Lincoln.Vampire.Hunt...
Norwegen.3D.2013.MULTi.COMPL...
Star.Wars.Episode.VIII.Die.l...
Star.Wars.Episode.VIII.Die.l...
Star.Wars.Episode.VIII.Die.l...
Jumanji.Welcome.To.The.Jungl...
Star.Wars.The.Last.Jedi.2017...
Final.Storm.Der.Untergang.de...
Final.Storm.Der.Untergang.de...
Jumanji.Willkommen.im.Dschun...

Old_Stuff
Zeit.der.Zaertlichkeit.1983....
Zeit.der.Zaertlichkeit.1983....
Regular.Show.S01.1080p.BluRa...
Ostfriesisch.fuer.Anfaenger....
Planet.der.Affen.Prevolution...
Final.Fantasy.VII.Advent.Chi...
City.Slickers.2.1994.German....
R.I.P.D.Rest.in.Peace.Depart...
The.Hornets.Nest.2014.LIMITE...
Korengal.2014.DOCU.1080p.Blu...
The.Transporter.Refueled.201...
Transporter.3.2008.DUAL.COMP...
Transporter.The.Mission.DC.2...
Transporter.2002.DUAL.COMPLE...
Am.gruenen.Rand.der.Welt.Far...

Filme
Ein.ganz.verrueckter.Freitag...
Patrouillenboot.PT.109.1963....
Nina.2016.German.DL.1080p.Bl...
The.Quest.Die.Serie.S03.DUAL...
Assault.on.Precinct.13.-.Ans...
MotoGP.Moto2.Moto3.Saison.20...
MotoGP.Moto2.Moto3.Saison.20...
Irre.sind.maennlich.German.1...
Irre.sind.maennlich.2014.Ger...
Tapeheads.-.Verrueckt.auf.Vi...
Aus.dem.Nichts.2017.German.1...
Der.Hobbit.Die.Schlacht.Der....
Letters.From.Iwo.Jima.2006.M...
Shameless.US.S07D01+2.DUAL.C...
Meine.Stiefmutter.ist.ein.Al...
Harold.und.Kumar.2.Flucht.au...
127.Hours.2010.German.AC3.DL...
Indiana.Jones.Jaeger.des.ver...
Atemlos.Gefaehrliche.Wahrhei...
Charleston.Zwei.Faeuste.raeu...
Charleston.Zwei.Faeuste.raeu...
Der.Pakt.der.Woelfe.DC.2001....
Oceans.Eleven.Open.Matte.200...
Extreme.Ops.2002.German.DL.A...

 
 
The.Blacklist.S05.GERMAN.DUBBED.DL.720p.WebHD.x264-TVP
Jahr: 2018
Genre: Krimi | Drama | Mystery
Sprache: Deutsch AC3 | Englisch AC3
Laufzeit: 41min je Folge
Bitrate: 5100 Kbps
Format: MKV
Größe: 1,7 GB je Folge
Release:

Beschreibung:

Seit mehr als einem Jahrzehnt jagt das FBI Raymond "Red" Reddington. Der ehemalige Spitzenagent war damals desertiert und verhandelt seitdem für Kriminelle auf der ganzen Welt die großen Deals. Der "Berater des Bösen" stellt sich nun überraschend der staatlichen Strafverfolgungsbehörde und unterbreitet ihr ein ganz besonderes Angebot: Er will dem FBI helfen, den lange für tot gehaltenen Top-Terroristen Zamani festzusetzen. Natürlich hat der Deal einen Haken: Red will ausschließlich mit Elizabeth Keen zusammen arbeiten. Die junge Profilerin hat gerade die FBI-Akademie verlassen und scheinbar keinerlei Verbindung zu Red. Der Ex-Agent fordert die Profilerin von Anfang an. Sie müsse lernen, wie ein Krimineller zu denken, erklärt er. Welche Absicht Red tatsächlich verfolgt, bleibt im Dunkeln.

 

enthaltene Folgen:

The.Blacklist.S05E01.Smokey.Putnum.Nr.30.GERMAN.DUBBED.DL.720p.WebHD.x264-TVP

The.Blacklist.S05E02.Greyson.Blaise.Nr.37.GERMAN.DUBBED.DL.720p.WebHD.x264-TVP

The.Blacklist.S05E03.Rebecca.Thrall.Nr.76.GERMAN.DUBBED.DL.720p.WebHD.x264-TVP

The.Blacklist.S05E04.Der.Endling.GERMAN.DUBBED.DL.720p.WebHD.x264-TVP

The.Blacklist.S05E05.Ilyas.Surkov.GERMAN.DUBBED.DL.720p.WebHD.x264-TVP

The.Blacklist.S05E06.The.Travel.Agency.GERMAN.DUBBED.DL.720p.WebHD.x264-TVP

The.Blacklist.S05E07.The.Kilgannon.Corporation.GERMAN.DUBBED.DL.720p.WebHD.x264-TVP

The.Blacklist.S05E08.Ian.Garvey.GERMAN.DUBBED.DL.720p.WebHD.x264-TVP

The.Blacklist.S05E09.Ruin.GERMAN.DUBBED.DL.720p.WebHD.x264-TVP

The.Blacklist.S05E10.The.Informant.GERMAN.DUBBED.DL.720p.WebHD.x264-TVP

The.Blacklist.S05E11.Abraham.Stern.GERMAN.DUBBED.DL.720p.WebHD.x264-TVP

The.Blacklist.S05E12.The.Cook.GERMAN.DUBBED.DL.720p.WebHD.x264-TVP

The.Blacklist.S05E13.The.Invisible.Hand.GERMAN.DUBBED.DL.720p.WebHD.x264-TVP NEU



General

Complete name                            : The.Blacklist.S05E01.Smokey.Putnum.Nr.30.GERMAN.DUBBED.DL.720p.WebHD.x264-TVP\tvp-theblacklist-s05e01-720p.mkv
Format                                   : Matroska
Format version                           : Version 4 / Version 2
File size                                : 1.69 GiB
Duration                                 : 41mn 15s
Overall bit rate                         : 5 859 Kbps
Movie name                               : The.Blacklist.S05E01.Smokey.Putnum.Nr.30.GERMAN.DUBBED.DL.720p.WebHD.x264-TVP
Encoded date                             : UTC 2018-02-13 20:52:42
Writing application                      : mkvmerge v8.5.2 ('Crosses') 64bit
Writing library                          : libebml v1.3.3 + libmatroska v1.4.4
DURATION                                 : 00:41:15.008000000
NUMBER_OF_FRAMES                         : 77344
NUMBER_OF_BYTES                          : 118800384
_STATISTICS_WRITING_APP                  : mkvmerge v8.5.2 ('Crosses') 64bit
_STATISTICS_WRITING_DATE_UTC             : 2018-02-13 20:52:42
_STATISTICS_TAGS                         : BPS DURATION NUMBER_OF_FRAMES NUMBER_OF_BYTES

Video
ID                                       : 1
Format                                   : AVC
Format/Info                              : Advanced Video Codec
Format profile                           : High@L4.1
Format settings, CABAC                   : Yes
Format settings, ReFrames                : 9 frames
Codec ID                                 : V_MPEG4/ISO/AVC
Duration                                 : 41mn 15s
Bit rate                                 : 5 166 Kbps
Width                                    : 1 280 pixels
Height                                   : 720 pixels
Display aspect ratio                     : 16:9
Frame rate mode                          : Constant
Frame rate                               : 25.000 fps
Original frame rate                      : 23.976 fps
Color space                              : YUV
Chroma subsampling                       : 4:2:0
Bit depth                                : 8 bits
Scan type                                : Progressive
Bits/(Pixel*Frame)                       : 0.224
Stream size                              : 1.49 GiB (88%)
Title                                    : tvp-theblacklist-s05e01-720p
Writing library                          : x264 core 148 r2638 7599210
Encoding settings                        : cabac=1 / ref=9 / deblock=1:-3:-3 / analyse=0x3:0x133 / me=umh / subme=10 / psy=1 / psy_rd=1.00:0.00 / mixed_ref=1 / me_range=48 / chroma_me=1 / trellis=2 / 8x8dct=1 / cqm=0 / deadzone=21,11 / fast_pskip=0 / chroma_qp_offset=-2 / threads=12 / lookahead_threads=2 / sliced_threads=0 / nr=0 / decimate=0 / interlaced=0 / bluray_compat=0 / constrained_intra=0 / bframes=9 / b_pyramid=0 / b_adapt=2 / b_bias=0 / direct=3 / weightb=1 / open_gop=0 / weightp=2 / keyint=240 / keyint_min=23 / scenecut=40 / intra_refresh=0 / rc=crf / mbtree=0 / crf=17.0 / qcomp=0.60 / qpmin=10 / qpmax=51 / qpstep=4 / ip_ratio=1.40 / pb_ratio=1.30 / aq=3:0.70
Language                                 : German
Default                                  : Yes
Forced                                   : Yes

Audio #1
ID                                       : 2
Format                                   : AC-3
Format/Info                              : Audio Coding 3
Mode extension                           : CM (complete main)
Format settings, Endianness              : Big
Codec ID                                 : A_AC3
Duration                                 : 41mn 15s
Bit rate mode                            : Constant
Bit rate                                 : 192 Kbps
Channel(s)                               : 2 channels
Channel positions                        : Front: L R
Sampling rate                            : 48.0 KHz
Bit depth                                : 16 bits
Compression mode                         : Lossy
Stream size                              : 56.7 MiB (3%)
Language                                 : German
Default                                  : Yes
Forced                                   : Yes

Audio #2
ID                                       : 3
Format                                   : AC-3
Format/Info                              : Audio Coding 3
Mode extension                           : CM (complete main)
Format settings, Endianness              : Big
Codec ID                                 : A_AC3
Duration                                 : 41mn 15s
Bit rate mode                            : Constant
Bit rate                                 : 384 Kbps
Channel(s)                               : 6 channels
Channel positions                        : Front: L C R, Side: L R, LFE
Sampling rate                            : 48.0 KHz
Bit depth                                : 16 bits
Compression mode                         : Lossy
Stream size                              : 113 MiB (7%)
Language                                 : English
Default                                  : No
Forced                                   : No



Download:
Share-Online.biz Share-Online.bizShare-Online.bizShare-Online.biz | Rapidgator.net Rapidgator.netRapidgator.netRapidgator.net
 

Kommentare