DNS SERVER AENDERNum der staatlichen Zensur zu umgehen. Sollten wir von eurem Provider geseprrt werden, nutzt den TOR BROWSER oder ändert euren DNS SERVER.

Filmwünsche können bei uns im Forum abgegeben werden

Wir Speichern Nicht




 
 
 
Top Releases
Lady.Bird.2017.MULTI.COMPLET...
Set.It.Up.2018.German.Dubbed...
Set.It.Up.2018.German.Dubbed...
Shape.of.Water.Das.Fluestern...
Der.andere.Liebhaber.2017.Ge...
It.Comes.at.Night.2017.Germa...
Marshall.2017.German.DL.AC3D...
Lady.Bird.2017.German.1080p....
Lady.Bird.2017.German.DTS.DL...
Lady.Bird.2017.German.DTS.DL...

Cinedubs
Tomb.Raider.2018.3D.HSBS.Ger...
Tomb.Raider.2018.3D.HOU.Germ...
Pacific.Rim.2.Uprising.3D.HO...
Pacific.Rim.2.Uprising.3D.HS...
Pacific.Rim.2.Uprising.Germa...
Pacific.Rim.2.Uprising.Germa...
Pacific.Rim.2.Uprising.Germa...
Unsane.Ausgeliefert.German.D...
Unsane.Ausgeliefert.German.D...
Sherlock.Gnomes.2018.German....

Neuerscheinungen 2017-18
Yellowstone.Nationalpark.201...
The.Patriot.2000.COMPLETE.UH...
Cherry.2000.1987.COMPLETE.BL...
Saturn.3.1980.MULTi.COMPLETE...
True.Confessions.1981.MULTi....
Die.Geier.warten.schon.Showd...
Sturmfahrt.nach.Alaska.The.W...
Juggernaut.1974.MULTi.COMPLE...
Das.Verfahren.ist.eingestell...
Bullet.Head.2017.German.DTS....

XXX
MofosBSides.18.05.27.Gia.Lov...
TrenchCoatX.17.10.19.Lily.La...
Masturbating.Glamour.Dolls.2...
MeloneChallenge.18.05.26.Wen...
TrenchCoatX.17.09.12.Ella.No...
MetArtX.18.05.29.Riley.Anne....
MassageRooms.18.05.30.Darcia...
MatureNL.18.05.24.Bella.S.XX...
LezCuties.18.05.31.Cherry.Ki...
Oldtimers.Still.Hot.And.Wet....
MeloneChallenge.18.05.29.Wen...
Oldtimers.Still.Hot.And.Wet....
Lustery.E114.Sasha.And.Lesha...
MetArtX.18.05.27.Alexis.Crys...
TrenchCoatX.17.10.08.April.O...
Oldtimers.Still.Hot.And.Wet....
TrenchCoatX.17.09.22.Veronic...
MomKnowsBest.18.05.30.Bridge...
MatureNL.18.05.23.Summer.XXX...
Nubiles.18.05.29.Anata.Love....

3D
Zombies.Ueberlebe.die.Untote...
Der.Dschungel.Der.Zauber.ein...
Penthouse.Presents.Sexy.Sing...
The.LEGO.Ninjago.Movie.3D.20...
Zombies.Ueberlebe.die.Untote...
Norwegen.3D.2013.GERMAN.DL.D...
Norwegen.3D.2013.GERMAN.DOKU...
Jumanji.Willkommen.im.Dschun...
Jumanji.Welcome.To.The.Jungl...
Abraham.Lincoln.Vampire.Hunt...
Norwegen.3D.2013.MULTi.COMPL...
Star.Wars.Episode.VIII.Die.l...
Star.Wars.Episode.VIII.Die.l...
Star.Wars.Episode.VIII.Die.l...
Jumanji.Welcome.To.The.Jungl...

Old_Stuff
Weissensee.S03.2015.GERMAN.C...
Weissensee.S01+S02.2010.GERM...
Die.Unglaublichen.-.The.Incr...
Der.grosse.Trick.1978.German...
Sully.2016.MULTi.COMPLETE.BL...
Tremors.3.Die.neue.Brut.2001...
Die.Indianer.von.Cleveland.2...
Dealt.2017.1080p.AMZN.WEB-DL...
Dealt.2017.720p.AMZN.WEB-DL....
Roter.Staub.aka.The.Brave.On...
Roter.Staub.aka.The.Brave.On...
Magic.in.the.Moonlight.2014....
The.LEGO.Ninjago.Movie.2017....
Zeit.der.Zaertlichkeit.1983....
Zeit.der.Zaertlichkeit.1983....

Filme
Suicide.Squad.2016.EXTENDED....
Der.Patriot.2000.German.DL.2...
MotoGP.Moto2.Moto3.Saison.20...
MotoGP.Moto2.Moto3.Saison.20...
South.Central.-.In.den.Stras...
Critical.Condition.1987.Germ...
Wut.im.Bauch.aka.Over.the.Ed...
Toedliches.Vertrauen.2001.Ge...
Duesenjaeger.1957.German.DL....
Abrechnung.in.Shanghai.1941....
The.Frankenstein.Chronicles....
Stuermische.Ernte.2016.GERMA...
Alarm.fuer.Cobra.11.S41D01.G...
Der.Typ.mit.dem.irren.Blick....
Der.Buschpilot.-.LAfricain.U...
Dirty.Grandpa.2016.German.Du...
Dirty.Grandpa.2016.German.Du...
Wings.Of.Freedom.Auf.Adlers....
Die.Schreckenskammer.des.Dr....
Die.Schreckenskammer.des.Dr....
A.Chorus.Line.1985.German.AC...
Wolf.Creek.S01.COMPLETE.Germ...
Wolf.Creek.S01.COMPLETE.Germ...
The.Flash.2014.S04.GERMAN.72...

 
 
Cache.2005.German.AC3D.1080p.BluRay.x265-FuN
Jahr: 2005
Genre: Drama, Mystery, Thriller
Sprache: Deutsch AC3
Laufzeit: 1h 57mn
Bitrate: 2 710 Kbps
Format: MKV
Größe: 2.23 GiB
Release:

Beschreibung:

Dem beliebten französischen Fernsehmoderator Georges Laurent (Daniel Auteuil) werden anonym Videoaufnahmen zugespielt, die ihn und seine Familie zeigen. Die Aufnahmen werden immer brisanter, sie dringen immer weiter in sein Privatleben ein. Seine Ehe mit Anne (Juliette Binoche) gerät in eine tiefe Krise. Georges versucht verzweifelt herauszufinden, wer dahinter steckt. Als auch noch Zeichnungen auftauchen, die einen Jungen mit blutendem Mund zeigen, fällt ihm schließlich der algerische Junge Majid ein, den er in seiner Kindheit mit bewusst falschen Anschuldigungen vom elterlichen Hof vertrieben hat. Neue Videoaufnahmen führen ihn in einen schäbigen, überwiegend von Algeriern bewohnten Pariser Vorort. Er folgt der Spur und findet – Majid (Maurice Bénichou). Von nun an überschlagen sich die Ereignisse, denn Georges’ Sohn wird entführt. Als Majid ihn zu einem Treffen zu sich nach Hause einlädt, gipfelt Georges’ Martyrium in einem surrealen Höhepunkt …




Format                                   : Matroska
Format version                           : Version 4 / Version 2
File size                                : 2.23 GiB
Duration                                 : 1h 57mn
Overall bit rate                         : 2 710 Kbps
Encoded date                             : UTC 2018-02-04 19:40:50
Writing application                      : mkvmerge v20.0.0 ('I Am The Sun') 64-bit
Writing library                          : libebml v1.3.5 + libmatroska v1.4.8

Video
ID                                       : 1
Format                                   : HEVC
Format/Info                              : High Efficiency Video Coding
Format profile                           : Main@L4.0
Codec ID                                 : V_MPEGH/ISO/HEVC
Duration                                 : 1h 57mn
Bit rate                                 : 2 272 Kbps
Width                                    : 1 920 pixels
Height                                   : 1 080 pixels
Display aspect ratio                     : 16:9
Frame rate mode                          : Constant
Frame rate                               : 24.000 fps
Color space                              : YUV
Chroma subsampling                       : 4:2:0
Bit depth                                : 8 bits
Bits/(Pixel*Frame)                       : 0.046
Stream size                              : 1.87 GiB (84%)
Writing library                          : x265 2.1:[Linux][GCC 5.4.0][64 bit] 8bit
Encoding settings                        : wpp / ctu=64 / min-cu-size=8 / max-tu-size=32 / tu-intra-depth=1 / tu-inter-depth=1 / me=1 / subme=2 / merange=57 / no-rect / no-amp / max-merge=2 / temporal-mvp / no-early-skip / rskip / rdpenalty=0 / no-tskip / no-tskip-fast / no-strong-intra-smoothing / no-lossless / no-cu-lossless / no-constrained-intra / no-fast-intra / open-gop / no-temporal-layers / interlace=0 / keyint=240 / min-keyint=24 / scenecut=40 / rc-lookahead=20 / lookahead-slices=6 / bframes=4 / bframe-bias=0 / b-adapt=2 / ref=3 / limit-refs=3 / no-limit-modes / weightp / no-weightb / aq-mode=1 / qg-size=32 / aq-strength=1,00 / cbqpoffs=0 / crqpoffs=0 / rd=3 / psy-rd=2,00 / rdoq-level=0 / psy-rdoq=0,00 / log2-max-poc-lsb=8 / no-rd-refine / signhide / deblock=0:0 / no-sao / no-sao-non-deblock / b-pyramid / cutree / no-intra-refresh / rc=crf / crf=23,0 / qcomp=0,60 / qpmin=0 / qpmax=69 / qpstep=4 / ipratio=1,40 / pbratio=1,30
Default                                  : Yes
Forced                                   : No
DURATION                                 : 01:57:53.042000000
NUMBER_OF_FRAMES                         : 169753
NUMBER_OF_BYTES                          : 2055279257
_STATISTICS_WRITING_APP                  : mkvmerge v20.0.0 ('I Am The Sun') 64-bit
_STATISTICS_WRITING_DATE_UTC             : 2018-02-04 19:40:50
_STATISTICS_TAGS                         : BPS DURATION NUMBER_OF_FRAMES NUMBER_OF_BYTES

Audio
ID                                       : 2
Format                                   : AC-3
Format/Info                              : Audio Coding 3
Mode extension                           : CM (complete main)
Format settings, Endianness              : Big
Codec ID                                 : A_AC3
Duration                                 : 1h 57mn
Bit rate mode                            : Constant
Bit rate                                 : 384 Kbps
Channel(s)                               : 6 channels
Channel positions                        : Front: L C R, Side: L R, LFE
Sampling rate                            : 48.0 KHz
Bit depth                                : 16 bits
Compression mode                         : Lossy
Delay relative to video                  : -5ms
Stream size                              : 324 MiB (14%)
Title                                    : Surround
Language                                 : German
Default                                  : Yes
Forced                                   : Yes
DURATION                                 : 01:57:52.288000000
NUMBER_OF_FRAMES                         : 221009
NUMBER_OF_BYTES                          : 339469824
_STATISTICS_WRITING_APP                  : mkvmerge v20.0.0 ('I Am The Sun') 64-bit
_STATISTICS_WRITING_DATE_UTC             : 2018-02-04 19:40:50
_STATISTICS_TAGS                         : BPS DURATION NUMBER_OF_FRAMES NUMBER_OF_BYTES



Download:
Share Online Share OnlineShare OnlineShare Online
 

Kommentare