DNS SERVER AENDERNum der staatlichen Zensur zu umgehen. Sollten wir von eurem Provider geseprrt werden, nutzt den TOR BROWSER oder ändert euren DNS SERVER.

Filmwünsche können bei uns im Forum abgegeben werden

Wir Speichern Nicht




 
 
 
Top Releases
Norman.2016.German.AC3D.DL.1...
Wo.steckt.Sidney.Hall.2017.G...
Chappie.2015.German.AC3.DL.1...
Solo.A.Star.Wars.Story.2018....
Der.Buchladen.der.Florance.G...
Jurassic.World.2.Das.gefalle...
Jurassic.World.2.Das.gefalle...
Racer.and.the.Jailbird.2017....
Racer.and.the.Jailbird.2017....
Racer.and.the.Jailbird.2017....

Cinedubs
First.Reformed.2017.German.D...
Mamma.Mia.2.Here.We.Go.Again...
First.Reformed.German.DL.AC3...
The.First.Purge.2018.German....
No.Way.Out.Gegen.die.Flammen...
First.Reformed.German.DL.AC3...
First.Reformed.German.DL.AC3...
The.First.Purge.German.DL.AC...
The.First.Purge.German.DL.AC...
Book.Club.Das.Beste.kommt.n...

Neuerscheinungen 2017-18
Mom.and.Dad.2017.German.AC3....
Jurassic.World.2.Das.gefalle...
Jurassic.World.2.Das.gefalle...
Zombie.Nightmare.1987.MULTi....
The.Boneyard.1991.MULTi.COMP...
Rueckenwind.von.vorn.2018.Ge...
Rueckenwind.von.vorn.2018.Ge...
The.Hurricane.Heist.2018.Ger...
Alte.Zoepfe.2018.German.DL.1...
Alte.Zoepfe.2018.German.DL.7...

XXX
PornMegaLoad.18.09.06.Ivy.Ic...
PervMom.18.09.01.Lily.Lane.M...
PervMom.18.09.04.Lauren.Phil...
Nubiles.18.09.10.Angy.Kiss.R...
Petite.18.08.30.Lenna.Lux.XX...
PervMom.18.08.28.Lily.Lane.G...
PornFidelity.E759.Ariel.Grac...
Natsu.No.Omoide.2.XXX.1080p....
My.First.Transsexual.10.XXX....
MonstersOfCock.18.09.09.Bren...
NaughtyOffice.18.09.09.Gia.D...
MySistersHotFriend.18.09.10....
My.First.Transsexual.10.XXX....
MyFamilyPies.18.09.09.Eliza....
MeloneChallenge.18.09.08.Wen...
MatureNL.18.09.06.Agness.XXX...
MySistersHotFriend.18.09.07....
Model.Collection.77.XXX.1080...
MilfsLikeItBig.18.09.07.Kayl...
MilfHunter.18.09.10.Ryan.Smi...

3D
Solo.A.Star.Wars.Story.3D.20...
Solo.A.Star.Wars.Story.3D.20...
Die.Biene.Maja.2.Die.Honigsp...
Avengers.Infinity.War.3D.201...
Avengers.Infinity.War.3D.201...
Rampage.Big.Meets.Bigger.3D....
Rampage.Big.Meets.Bigger.3D....
Rampage.Big.Meets.Bigger.3D....
Winter.Games.3D.2013.DUAL.CO...
Tomb.Raider.3D.2018.German.7...
Rampage.Big.Meets.Bigger.3D....
Rampage.Big.Meets.Bigger.3D....
Tomb.Raider.3D.2018.MULTi.CO...
Pacific.Rim.Uprising.3D.2018...
Ready.Player.One.3D.2018.Ger...

Old_Stuff
Schimanski.-.Duisburg.Ruhror...
Akte.X.S02.German.DTS.DL.108...
How.I.Met.Your.Mother.S02.Ge...
Akte.X.S01.German.DTS.DL.108...
Den.Himmel.gibts.echt.DL.108...
Vikings.S02.German.DL.1080p....
Be.Kind.Rewind.Abgedreht.200...
Be.Kind.Rewind.Abgedreht.200...
Dracula.The.Dark.Lord.2012.G...
21.2008.German.DL.1080p.BluR...
Achtung.fertig.WK.Swissgerma...
The.Ouija.Exorcism.2015.MULT...
Meine.liebe.Rabenmutter.germ...
Da.Vincis.Demons.S01.Complet...
Eragon.Das.Vermaechtnis.der....

Filme
Longmire.S05.COMPLETE.GERMAN...
Snowfall.S02.German.DD51.Dub...
Into.the.Badlands.S03.German...
Into.the.Badlands.S03.German...
Animal.Kingdom.S03.GERMAN.DD...
Die.Nadel.1981.German.AC3.DL...
Saw.III.Directors.Cut.2006.G...
Meine.teuflischen.Nachbarn.1...
Gorillas.im.Nebel.1988.Germa...
Paparazzi.2004.German.AC3D.D...
Shaolin.Kickers.aka.Shaolin....
Three.Burials.Die.drei.Begra...
Moulin.Rouge.2001.German.DL....
Jurassic.World.2.Das.gefalle...
Saw.I.Directors.Cut.2004.Ger...
Vier.im.roten.Kreis.1970.Ger...
Liebe.auf.den.ersten.Schlag....
Alter.Ego.Noch.groessere.Pro...
Der.phantastische.Planet.197...
Der.phantastische.Planet.197...
Agatha.Christies.Ein.Unbekan...
Agatha.Christies.Ein.Unbekan...
Argo.2012.German.DL.2160p.UH...
MotoGP.Moto2.Moto3.Saison.20...

 
 
Freeway.Crack.in.the.System.2015.1080p.WEB.x264-AMRAP
Jahr: 2015
Genre: Dokumentation
Sprache: Englisch AC3
Laufzeit: 1h 43mn
Bitrate: 6 480 Kbps
Format: MKV
Größe: 4.67 GiB
Release:

Beschreibung:
"Freeway: Crack In The System" ist eine Dokumentation über den Drogendealer Freeway Rick Ross, der zu einem der größten Verbrecher seiner Zeit aufstieg, den Krieg gegen die Drogen und den Journalisten Gary Webb, der für seine Enthüllungen über die Verwicklung der Regierung in diese illegalen Geschäfte einen Pulitzer-Preis erhielt.


Complete name                            : Freeway.Crack.in.the.System.2015.1080p.WEB.x264-AMRAP.mkv
Format                                   : Matroska
Format version                           : Version 4 / Version 2
File size                                : 4.67 GiB
Duration                                 : 1h 43mn
Overall bit rate mode                    : Variable
Overall bit rate                         : 6 480 Kbps
Writing application                      : mkvmerge v20.0.0 ('I Am The Sun') 64-bit
Writing library                          : libebml v1.3.5 + libmatroska v1.4.8

Video
ID                                       : 1
Format                                   : AVC
Format/Info                              : Advanced Video Codec
Format profile                           : Main@L4.0
Format settings, CABAC                   : Yes
Format settings, ReFrames                : 3 frames
Codec ID                                 : V_MPEG4/ISO/AVC
Duration                                 : 1h 43mn
Bit rate mode                            : Variable
Bit rate                                 : 6 190 Kbps
Maximum bit rate                         : 9 285 Kbps
Width                                    : 1 920 pixels
Height                                   : 1 080 pixels
Display aspect ratio                     : 16:9
Frame rate mode                          : Constant
Frame rate                               : 23.976 fps
Color space                              : YUV
Chroma subsampling                       : 4:2:0
Bit depth                                : 8 bits
Scan type                                : Progressive
Bits/(Pixel*Frame)                       : 0.125
Stream size                              : 4.30 GiB (92%)
Writing library                          : x264 core 148
Encoding settings                        : cabac=1 / ref=3 / deblock=1:0:0 / analyse=0x1:0x111 / me=umh / subme=10 / psy=1 / psy_rd=1.00:0.00 / mixed_ref=1 / me_range=24 / chroma_me=1 / trellis=2 / 8x8dct=0 / cqm=0 / deadzone=21,11 / fast_pskip=1 / chroma_qp_offset=-2 / threads=8 / lookahead_threads=1 / sliced_threads=0 / nr=0 / decimate=1 / interlaced=0 / bluray_compat=0 / stitchable=1 / constrained_intra=0 / bframes=2 / b_pyramid=0 / b_adapt=2 / b_bias=0 / direct=3 / weightb=1 / open_gop=0 / weightp=2 / keyint=48 / keyint_min=25 / scenecut=0 / intra_refresh=0 / rc_lookahead=48 / rc=2pass / mbtree=1 / bitrate=6190 / ratetol=1.0 / qcomp=0.50 / qpmin=6 / qpmax=51 / qpstep=4 / cplxblur=20.0 / qblur=0.5 / vbv_maxrate=9285 / vbv_bufsize=12380 / nal_hrd=vbr / filler=0 / ip_ratio=1.40 / aq=1:1.00
Default                                  : Yes
Forced                                   : No

Audio
ID                                       : 2
Format                                   : AC-3
Format/Info                              : Audio Coding 3
Mode extension                           : CM (complete main)
Format settings, Endianness              : Big
Codec ID                                 : A_AC3
Duration                                 : 1h 43mn
Bit rate mode                            : Constant
Bit rate                                 : 384 Kbps
Channel(s)                               : 6 channels
Channel positions                        : Front: L C R, Side: L R, LFE
Sampling rate                            : 48.0 KHz
Bit depth                                : 16 bits
Compression mode                         : Lossy
Stream size                              : 283 MiB (6%)
Default                                  : Yes
Forced                                   : No

Text #1
ID                                       : 3
Format                                   : UTF-8
Codec ID                                 : S_TEXT/UTF8
Codec ID/Info                            : UTF-8 Plain Text
Title                                    : English
Language                                 : English
Default                                  : No
Forced                                   : No

Text #2
ID                                       : 4
Format                                   : UTF-8
Codec ID                                 : S_TEXT/UTF8
Codec ID/Info                            : UTF-8 Plain Text
Title                                    : Swedish
Language                                 : Swedish
Default                                  : No
Forced                                   : No

Text #3
ID                                       : 5
Format                                   : UTF-8
Codec ID                                 : S_TEXT/UTF8
Codec ID/Info                            : UTF-8 Plain Text
Title                                    : Norwegian
Language                                 : Norwegian
Default                                  : No
Forced                                   : No

Text #4
ID                                       : 6
Format                                   : UTF-8
Codec ID                                 : S_TEXT/UTF8
Codec ID/Info                            : UTF-8 Plain Text
Title                                    : German
Language                                 : German
Default                                  : No
Forced                                   : No

Text #5
ID                                       : 7
Format                                   : UTF-8
Codec ID                                 : S_TEXT/UTF8
Codec ID/Info                            : UTF-8 Plain Text
Title                                    : Finnish
Language                                 : Finnish
Default                                  : No
Forced                                   : No





Download:
Share Online Share OnlineShare OnlineShare Online
 

Kommentare