DNS SERVER AENDERNum der staatlichen Zensur zu umgehen. Sollten wir von eurem Provider geseprrt werden, nutzt den TOR BROWSER oder ändert euren DNS SERVER.

Filmwünsche können bei uns im Forum abgegeben werden

Wir Speichern Nicht




 
 
 
Top Releases
12.Strong.2018.MULTi.COMPLET...
Mollys.Game.Alles.auf.eine.K...
Mollys.Game.Alles.auf.eine.K...
Low.Budget.Stuntman.2017.DUA...
Low.Budget.Stuntman.2017.Ger...
Low.Budget.Stuntman.2017.Ger...
Game.Night.2018.MULTI.COMPLE...
God.of.War.2017.MULTi.COMPLE...
God.of.War.2017.German.1080p...
God.of.War.2017.German.720p....

Cinedubs
Gans.im.Glueck.2017.German.D...
Gans.im.Glueck.2017.German.D...
Die.Frau.die.vorausgeht.2017...
Die.Frau.die.vorausgeht.2017...
Super.Troopers.2.2018.German...
Thoroughbreds.2017.German.AC...
Thoroughbreds.2017.German.AC...
Vom.Ende.einer.Geschichte.20...
Vom.Ende.einer.Geschichte.20...
I.Feel.Pretty.2018.German.AC...

Neuerscheinungen 2017-18
Blutrache.Blood.Hunt.2017.CO...
Ritter.der.Nacht.1959.German...
Blutrache.Blood.Hunt.2017.Ge...
Blutrache.Blood.Hunt.2017.Ge...
Das.Schweigen.The.Silence.19...
Teenage.Mutant.Ninja.Turtles...
Der.Gejagte.Ritter.der.Nacht...
Startup.2001.German.DTS.DL.1...
Startup.2001.German.DTS.720p...
Banditen.2001.German.DL.1080...

XXX
Babes.Illustrated.Cougars.Lo...
Daring.Past.Times.XXX.1080p....
Oriental.Rugs.5.XXX.1080p.WE...
Room.69.XXX.1080p.WEBRip.MP4...
We.Want.Black.XXX.1080p.WEBR...
AnalOverdose.18.07.12.Pepper...
CastingFrancais.18.07.12.Nin...
Defloration.18.07.12.Jennife...
DeviceBondage.18.07.12.Sammi...
FakeAgent.18.07.12.Paulina.S...
FirstTimeAuditions.18.07.12....
Hustler.18.07.12.Ayumi.Anime...
MomXXX.18.07.12.Elen.Million...
RKPrime.18.07.12.Nola.Blu.Tw...
StreetSuckers.18.07.12.Ena.S...
TrueAnal.18.07.12.Tara.Ashle...
My.Best.Friends.Wife.XXX.WEB...
My.New.Hot.Stepmother.XXX.72...
Pornstar.Workout.720p.XXX.Bl...
Private.Blockbusters.Appetit...

3D
Ready.Player.One.2018.3D.HOU...
Ready.Player.One.2018.3D.HSB...
Ready.Player.One.3D.2018.MUL...
Black.Panther.3D.2018.MULTI....
Black.Panther.3D.HOU.2018.Ge...
Black.Panther.3D.HSBS.2018.G...
Best.of.3D.vol.04.-.06.GERMA...
Tomb.Raider.2018.3D.HOU.Germ...
Tomb.Raider.2018.3D.HSBS.Ger...
Tomb.Raider.2018.3D.COMPLETE...
Zombies.Ueberlebe.die.Untote...
Der.Dschungel.Der.Zauber.ein...
Penthouse.Presents.Sexy.Sing...
The.LEGO.Ninjago.Movie.3D.20...
Zombies.Ueberlebe.die.Untote...

Old_Stuff
Meine.liebe.Rabenmutter.germ...
Da.Vincis.Demons.S01.Complet...
Eragon.Das.Vermaechtnis.der....
Adele.und.das.Geheimnis.des....
Die.fabelhafte.Welt.der.Amel...
Haus.des.Geldes.S01.German.M...
How.I.Met.Your.Mother.S01.Ge...
The.Dark.Knight.Rises.2012.M...
Weissensee.S03.2015.GERMAN.C...
Weissensee.S01+S02.2010.GERM...
Die.Unglaublichen.-.The.Incr...
Der.grosse.Trick.1978.German...
Sully.2016.MULTi.COMPLETE.BL...
Tremors.3.Die.neue.Brut.2001...
Die.Indianer.von.Cleveland.2...

Filme
The.Flash.2014.S04.GERMAN.10...
Supergirl.S03.GERMAN.1080p.H...
Marvels.Agents.of.S.H.I.E.L....
Marvels.Agents.of.S.H.I.E.L....
Einmal.ist.keinmal.German.DL...
Jahre.der.Zaertlichkeit.-.Di...
Elektra.Luxx.2010.German.DL....
Killing.Salazar.2016.German....
Best.of.3D.vol.07.-.09.GERMA...
Wie.beim.ersten.Mal.German.D...
Julia.Blutige.Rache.2014.Ger...
Akte.X.S11.COMPLETE.German.D...
Devour.-.Der.schwarze.Pfad.2...
Akte.X.S11.COMPLETE.German.D...
The.War.Within.2005.German.A...
Modigliani.2004.German.AC3D....
Vier.Fliegen.auf.grauem.Samt...
Die.Trapp.Familie.in.Amerika...
Die.Trapp.Familie.in.Amerika...
Frankenstein.schuf.ein.Weib....
Frankenstein.schuf.ein.Weib....
Die.Trapp.Familie.1956.Germa...
Ich.liebe.dich.zu.Tode.1990....
Gehirnwaesche.1979.German.AC...

 
 
Coco.Lebendiger.als.das.Leben.3D.HOU.2017.German.DL.1080p.BluRay.x264-COiNCiDENCE
Jahr: 2017
Genre: Animation, Komödie
Sprache: Deutsch AC3 | Englisch DTS
Laufzeit: 1h 45mn
Bitrate: 6 564 Kbps
Format: MKV
Größe: 4.82 GiB
Release:

Beschreibung:

Die Macht einer geheimnisvollen Gitarre und der neugierige Hund Dante entführen uns in aufregende, unbekannte Welten, die ein Füllhorn an schrägen Typen, mitreißender Musik und Slapstick geladenen Begegnungen bereit halten und dabei einige altbekannte Mythen ziemlich auf den Kopf stellen…im wahrsten Sinne des Wortes: zum Totlachen!



Complete name                            : coincidence-coco-3dhou.mkv
Format                                   : Matroska
Format version                           : Version 4 / Version 2
File size                                : 4.82 GiB
Duration                                 : 1h 45mn
Overall bit rate                         : 6 564 Kbps
Encoded date                             : UTC 2018-03-15 20:34:42
Writing application                      : mkvmerge v8.3.0 ('Over the Horizon') 64bit
Writing library                          : libebml v1.3.1 + libmatroska v1.4.2
DURATION                                 : 00:00:02.412000000
NUMBER_OF_FRAMES                         : 1
NUMBER_OF_BYTES                          : 2313
_STATISTICS_WRITING_APP                  : mkvmerge v8.3.0 ('Over the Horizon') 64bit
_STATISTICS_WRITING_DATE_UTC             : 2018-03-15 20:34:42
_STATISTICS_TAGS                         : BPS DURATION NUMBER_OF_FRAMES NUMBER_OF_BYTES

Video
ID                                       : 1
Format                                   : AVC
Format/Info                              : Advanced Video Codec
Format profile                           : High@L4.1
Format settings, CABAC                   : Yes
Format settings, ReFrames                : 4 frames
Codec ID                                 : V_MPEG4/ISO/AVC
Duration                                 : 1h 45mn
Bit rate                                 : 4 412 Kbps
Width                                    : 1 920 pixels
Height                                   : 1 080 pixels
Display aspect ratio                     : 16:9
Frame rate mode                          : Constant
Frame rate                               : 23.976 fps
Color space                              : YUV
Chroma subsampling                       : 4:2:0
Bit depth                                : 8 bits
Scan type                                : Progressive
Bits/(Pixel*Frame)                       : 0.089
Stream size                              : 3.24 GiB (67%)
Writing library                          : x264 core 155 r2901 7d0ff22
Encoding settings                        : cabac=1 / ref=4 / deblock=1:-1:-1 / analyse=0x3:0x113 / me=umh / subme=10 / psy=1 / psy_rd=1.00:0.00 / mixed_ref=1 / me_range=16 / chroma_me=1 / trellis=2 / 8x8dct=1 / cqm=0 / deadzone=21,11 / fast_pskip=0 / chroma_qp_offset=-2 / threads=80 / lookahead_threads=6 / sliced_threads=0 / nr=0 / decimate=1 / interlaced=0 / bluray_compat=0 / constrained_intra=0 / bframes=5 / b_pyramid=2 / b_adapt=1 / b_bias=0 / direct=3 / weightb=1 / open_gop=0 / weightp=1 / keyint=250 / keyint_min=23 / scenecut=40 / intra_refresh=0 / rc_lookahead=40 / rc=crf / mbtree=1 / crf=20.0 / qcomp=0.60 / qpmin=16 / qpmax=69 / qpstep=4 / ip_ratio=1.40 / aq=1:1.00
Language                                 : English
Default                                  : Yes
Forced                                   : No
DURATION                                 : 01:45:02.004000000
NUMBER_OF_FRAMES                         : 151097
NUMBER_OF_BYTES                          : 3576454763
_STATISTICS_WRITING_APP                  : mkvmerge v8.3.0 ('Over the Horizon') 64bit
_STATISTICS_WRITING_DATE_UTC             : 2018-03-15 20:34:42
_STATISTICS_TAGS                         : BPS DURATION NUMBER_OF_FRAMES NUMBER_OF_BYTES

Audio #1
ID                                       : 2
Format                                   : AC-3
Format/Info                              : Audio Coding 3
Mode extension                           : CM (complete main)
Format settings, Endianness              : Big
Codec ID                                 : A_AC3
Duration                                 : 1h 45mn
Bit rate mode                            : Constant
Bit rate                                 : 512 Kbps
Channel(s)                               : 6 channels
Channel positions                        : Front: L C R, Side: L R, LFE
Sampling rate                            : 48.0 KHz
Bit depth                                : 16 bits
Compression mode                         : Lossy
Stream size                              : 385 MiB (8%)
Language                                 : German
Default                                  : Yes
Forced                                   : No

Audio #2
ID                                       : 3
Format                                   : DTS
Format/Info                              : Digital Theater Systems
Mode                                     : 16
Format settings, Endianness              : Big
Codec ID                                 : A_DTS
Duration                                 : 1h 45mn
Bit rate mode                            : Constant
Bit rate                                 : 1 509 Kbps
Channel(s)                               : 6 channels
Channel positions                        : Front: L C R, Side: L R, LFE
Sampling rate                            : 48.0 KHz
Bit depth                                : 24 bits
Compression mode                         : Lossy
Stream size                              : 1.11 GiB (23%)
Language                                 : English
Default                                  : No
Forced                                   : No

Text
ID                                       : 4
Format                                   : VobSub
Muxing mode                              : zlib
Codec ID                                 : S_VOBSUB
Codec ID/Info                            : The same subtitle format used on DVDs
Title                                    : eng forced
Language                                 : English
Default                                  : No
Forced                                   : No


Download:
Share Online Share OnlineShare OnlineShare Online
 

Kommentare