HD-AREA wünscht Euch eine besinnliche Weihnachtszeit ;)

DNS SERVER AENDERNum der staatlichen Zensur zu umgehen. Sollten wir von eurem Provider geseprrt werden, nutzt den TOR BROWSER oder ändert euren DNS SERVER.

Filmwünsche können bei uns im Forum abgegeben werden

Wir Speichern Nicht




 
 
 
Top Releases
Von.Loewen.und.Laemmern.2007...
The.Hateful.8.2015.German.AC...
Der.Unsichtbare.Gast.2016.Ge...
BlacKkKlansman.2018.German.A...
Von.Loewen.und.Laemmern.2007...
Von.Loewen.und.Laemmern.2007...
Von.Loewen.und.Laemmern.2007...
Braven.2018.German.AC3.DL.10...
The.Last.Movie.Star.2017.DUA...
The.Infiltrator.2016.German....

Cinedubs
Johnny.English.Man.lebt.nur....
Johnny.English.Man.lebt.nur....
Johnny.English.Man.lebt.nur....
Phantastische.Tierwesen.Grin...
Phantastische.Tierwesen.Grin...
The.Guilty.2018.German.AC3D....
The.Guilty.2018.German.AC3D....
Aufbruch.zum.Mond.German.DL....
Aufbruch.zum.Mond.German.DL....
Night.School.2018.GERMAN.DL....

Neuerscheinungen 2017-18
Slender.Man.German.DL.720p.B...
Slender.Man.German.DL.1080p....
Monster.Hunt.2.2018.GERMAN.1...
Monster.Hunt.2.2018.GERMAN.7...
Monster.Hunt.2.2018.GERMAN.D...
The.Howling.1981.MULTI.COMPL...
Monster.Hunt.2.2018.DUAL.COM...
Slender.Man.2018.MULTi.COMPL...
Der.Teufelsschrei.Evilspeak....
Ultimate.Justice.Toeten.oder...

XXX
LaurenPhillips.17.08.04.Game...
FatManFuck.18.07.01.Lola.Rae...
Lubed.18.12.10.Kiara.Cole.Te...
LaurenPhillips.17.09.01.Devo...
HardX.18.12.11.Jane.Wilde.Dr...
HollyRandall.18.12.11.Nicole...
ManuelFerrara.18.12.10.Kayla...
FatManFuck.18.09.23.Dolly.XX...
LoneMilf.18.12.10.Summer.Har...
HotLegsAndFeet.18.12.11.Barb...
FatManFuck.18.09.02.Skyler.S...
Horror.Shop.Vol.2.XXX.1080p....
LaurenPhillips.17.07.21.Play...
LetsTryAnal.18.12.11.Emily.W...
LaurenPhillips.17.08.25.Let....
Hustler.18.12.09.Britney.Amb...
FatManFuck.18.06.30.Little.T...
HornyDoctor.18.12.10.Karol.L...
FatManFuck.18.06.24.Lauren.C...
HeavyOnHotties.18.12.11.Frai...

3D
Meg.3D.2018.MULTi.COMPLETE.B...
Meg.3D.2018.German.DL.1080p....
Gans.im.Glueck.3D.2018.MULTi...
The.Art.of.Flight.3D.2011.Ge...
The.End.Of.The.World.3D.2010...
The.First.Avenger.Civil.War....
Die.Unglaublichen.2.2018.3D....
Skyscraper.3D.2018.MULTi.COM...
Ant-Man.And.The.Wasp.3D.2018...
Ant.Man.and.the.Wasp.3D.2018...
Die.Unglaublichen.2.3D.2018....
Die.Unglaublichen.2.2018.3D....
Die.Unglaublichen.2.2018.3D....
Sharknado.6.The.Last.One.3D....
Deep.Kleine.Helden.der.Tiefs...

Old_Stuff
Akte.X.S05.German.DTS.DL.108...
Akte.X.S04.German.DTS.DL.108...
Akte.X.S03.German.DTS.DL.108...
Dunkirk.1958.COMPLETE.BLURAY...
Das.Wunder.von.Manhattan.199...
The.Amazing.Spiderman.2.Rise...
Rise.of.the.Predator.2014.Ge...
Detective.Dee.und.das.Geheim...
Detective.Dee.Und.Der.Fluch....
Ghost.Rider.Spirit.of.Vengea...
Species.IV.Das.Erwachen.2007...
Species.IV.Das.Erwachen.2007...
Hotel.Transsilvanien.2012.Ge...
The.Dead.2010.German.DL.1080...
The.Dead.2.India.2013.German...

Filme
Young.Adam.Dunkle.Leidenscha...
Spaceballs.1987.HDR2SDR.1080...
Bleeder.1999.German.DL.1080p...
Eine.Leiche.zum.Dessert.1976...
Plane.Dead.-.Zombies.on.a.Pl...
Die.Nackten.und.die.Toten.19...
Das.Schlafzimmerfenster.aka....
So.wie.wir.waren.1973.German...
Schindlers.Liste.1993.German...
Jesse.James.Mann.ohne.Gesetz...
Modern.Family.S09.GERMAN.DUB...
Modern.Family.S09.GERMAN.DUB...
MADIBA.S01D01-2.MULTi.COMPLE...
Suits.S07.COMPLETE.German.DL...
Summer.Shark.Attack.2016.Ger...
Fail.State.2017.1080p.WEB.H2...
Sugarhouse.2007.German.DL.10...
Suicide.Note.Falscher.Verdac...
Suicide.Squad.2016.German.TH...
Summer.of.Sam.1999.German.AC...
Summer.Scars.2007.German.DL....
Robin.Williams.Come.Inside.M...
Black.Book.2006.German.AC3D....
In.Sachen.Liebe.1997.German....

 
 
Shock.Wave.2017.German.AC3.1080p.BluRay.x265-FuN
Jahr: 2017
Genre: Action, Thriller
Sprache: Deutsch AC3
Laufzeit: 1h 58mn
Bitrate: 4 224 Kbps
Format: MKV
Größe: 3.50 GiB
Release:

Beschreibung:

Der Bombenentschärfungsexperte Cheung Choi-san (Andy Lau) ging vor sieben Jahren undercover, um den gefürchteten Verbrecher und Sprengstoffattentäter Blast (Jiang Wu) zu schnappen. Doch die Operation war nur teilweise ein Erfolg. Blasts gesamte Gang, inklusive dessen jüngerem Bruder, konnte zwar verhaftet werden, doch der Anführer selbst entkam. Cheung wurde befördert und entschärft in Hongkong nun regelmäßig Bomben. Doch dann gibt es eine Serie von Attentaten und die Polizei findet heraus, dass große Mengen von Sprengstoff in die Stadt geschmuggelt wurden. Wozu diese gedacht sind, erfährt Cheung sehr bald. Rücksichtslose Kriminelle übernehmen den größten Unterwasser-Tunnel-Komplex Hongkongs und halten dort hunderte Bürger als Geiseln. Sie drohen damit, alles in die Luft zu sprengen. Ihr Anführer ist Blast…



Complete name                            : funxd.mkv
Format                                   : Matroska
Format version                           : Version 4 / Version 2
File size                                : 3.50 GiB
Duration                                 : 1h 58mn
Overall bit rate                         : 4 224 Kbps
Encoded date                             : UTC 2018-03-19 18:09:07
Writing application                      : mkvmerge v21.0.0 ('Tardigrades Will Inherit The Earth') 64-bit
Writing library                          : libebml v1.3.5 + libmatroska v1.4.8

Video
ID                                       : 1
Format                                   : HEVC
Format/Info                              : High Efficiency Video Coding
Format profile                           : Main@L4.0
Codec ID                                 : V_MPEGH/ISO/HEVC
Duration                                 : 1h 58mn
Bit rate                                 : 3 756 Kbps
Width                                    : 1 920 pixels
Height                                   : 804 pixels
Display aspect ratio                     : 2.40:1
Frame rate mode                          : Constant
Frame rate                               : 24.000 fps
Color space                              : YUV
Chroma subsampling                       : 4:2:0
Bit depth                                : 8 bits
Bits/(Pixel*Frame)                       : 0.101
Stream size                              : 3.11 GiB (89%)
Writing library                          : x265 2.1:[Linux][GCC 5.4.0][64 bit] 8bit
Encoding settings                        : wpp / ctu=64 / min-cu-size=8 / max-tu-size=32 / tu-intra-depth=1 / tu-inter-depth=1 / me=1 / subme=2 / merange=57 / no-rect / no-amp / max-merge=2 / temporal-mvp / no-early-skip / rskip / rdpenalty=0 / no-tskip / no-tskip-fast / no-strong-intra-smoothing / no-lossless / no-cu-lossless / no-constrained-intra / no-fast-intra / open-gop / no-temporal-layers / interlace=0 / keyint=240 / min-keyint=24 / scenecut=40 / rc-lookahead=20 / lookahead-slices=5 / bframes=4 / bframe-bias=0 / b-adapt=2 / ref=3 / limit-refs=3 / no-limit-modes / weightp / no-weightb / aq-mode=1 / qg-size=32 / aq-strength=1,00 / cbqpoffs=0 / crqpoffs=0 / rd=3 / psy-rd=2,00 / rdoq-level=0 / psy-rdoq=0,00 / log2-max-poc-lsb=8 / no-rd-refine / signhide / deblock=0:0 / no-sao / no-sao-non-deblock / b-pyramid / cutree / no-intra-refresh / rc=crf / crf=20,0 / qcomp=0,60 / qpmin=0 / qpmax=69 / qpstep=4 / ipratio=1,40 / pbratio=1,30
Default                                  : Yes
Forced                                   : No
DURATION                                 : 01:58:32.875000000
NUMBER_OF_FRAMES                         : 170709
NUMBER_OF_BYTES                          : 3351756821
_STATISTICS_WRITING_APP                  : mkvmerge v21.0.0 ('Tardigrades Will Inherit The Earth') 64-bit
_STATISTICS_WRITING_DATE_UTC             : 2018-03-19 18:09:07
_STATISTICS_TAGS                         : BPS DURATION NUMBER_OF_FRAMES NUMBER_OF_BYTES

Audio
ID                                       : 2
Format                                   : AC-3
Format/Info                              : Audio Coding 3
Mode extension                           : CM (complete main)
Format settings, Endianness              : Big
Codec ID                                 : A_AC3
Duration                                 : 1h 58mn
Bit rate mode                            : Constant
Bit rate                                 : 384 Kbps
Channel(s)                               : 6 channels
Channel positions                        : Front: L C R, Side: L R, LFE
Sampling rate                            : 48.0 KHz
Bit depth                                : 16 bits
Compression mode                         : Lossy
Delay relative to video                  : -5ms
Stream size                              : 326 MiB (9%)
Title                                    : Surround
Language                                 : German
Default                                  : Yes
Forced                                   : Yes
DURATION                                 : 01:58:32.864000000
NUMBER_OF_FRAMES                         : 222277
NUMBER_OF_BYTES                          : 341417472
_STATISTICS_WRITING_APP                  : mkvmerge v21.0.0 ('Tardigrades Will Inherit The Earth') 64-bit
_STATISTICS_WRITING_DATE_UTC             : 2018-03-19 18:09:07
_STATISTICS_TAGS                         : BPS DURATION NUMBER_OF_FRAMES NUMBER_OF_BYTES

Text #1
ID                                       : 3
Format                                   : PGS
Codec ID                                 : S_HDMV/PGS
Codec ID/Info                            : The same subtitle format used on BDs/HD-DVDs
Title                                    : forced
Language                                 : German
Default                                  : Yes
Forced                                   : Yes
DURATION                                 : 01:51:06.125000000
NUMBER_OF_FRAMES                         : 2248
NUMBER_OF_BYTES                          : 60100408
_STATISTICS_WRITING_APP                  : mkvmerge v21.0.0 ('Tardigrades Will Inherit The Earth') 64-bit
_STATISTICS_WRITING_DATE_UTC             : 2018-03-19 18:09:07
_STATISTICS_TAGS                         : BPS DURATION NUMBER_OF_FRAMES NUMBER_OF_BYTES

Text #2
ID                                       : 4
Format                                   : PGS
Codec ID                                 : S_HDMV/PGS
Codec ID/Info                            : The same subtitle format used on BDs/HD-DVDs
Title                                    : full
Language                                 : German
Default                                  : No
Forced                                   : No
DURATION                                 : 01:45:37.667000000
NUMBER_OF_FRAMES                         : 42
NUMBER_OF_BYTES                          : 1078055
_STATISTICS_WRITING_APP                  : mkvmerge v21.0.0 ('Tardigrades Will Inherit The Earth') 64-bit
_STATISTICS_WRITING_DATE_UTC             : 2018-03-19 18:09:07
_STATISTICS_TAGS                         : BPS DURATION NUMBER_OF_FRAMES NUMBER_OF_BYTES


Download:
Share Online Share OnlineShare OnlineShare Online
 

Kommentare