Die aktuelle Sicherheitswarnung bei Filecrypt kann ignoriert werden! Man kümmert sich um das Problem!

DNS SERVER AENDERNum der staatlichen Zensur zu umgehen. Sollten wir von eurem Provider geseprrt werden, nutzt den TOR BROWSER oder ändert euren DNS SERVER.

Filmwünsche können bei uns im Forum abgegeben werden

Wir Speichern Nicht




 
 
 
Top Releases
Pitch.Perfect.3.2017.MULTI.C...
Pitch.Perfect.2012.MULTi.COM...
Allied.2016.MULTi.COMPLETE.U...
Die.Unsichtbaren.Wir.wollen....
Bill.Was.fuer.ein.Theater.Bi...
Bill.Was.fuer.ein.Theater.20...
Bill.Was.fuer.ein.Theater.20...
Lady.Macbeth.2016.MULTI.COMP...
Lady.Macbeth.2016.GERMAN.DL....
Lady.Macbeth.2016.GERMAN.720...

Cinedubs
The.Disaster.Artist.2017.Ger...
The.Disaster.Artist.2017.Ger...
Peter.Hase.2018.German.MD.DL...
Peter.Hase.2018.German.MD.DL...
Pacific.Rim.2.Uprising.Germa...
Pacific.Rim.2.Uprising.Germa...
Winchester.2018.German.AC3MD...
Winchester.2018.German.AC3MD...
Red.Sparrow.German.DL.AC3.Du...
Red.Sparrow.German.DL.AC3.Du...

Neuerscheinungen 2017-18
Caprona.2.Menschen.die.die.Z...
Caprona.2.Menschen.die.die.Z...
Deep.Blue.Sea.2.2018.German....
Deep.Blue.Sea.2.2018.German....
Die.Befreiung.Teil.1-5.1970....
Die.Befreiung.Teil.1-5.1970....
Deep.Blue.Sea.2.2018.MULTI.C...
Death.Racers.2008.GERMAN.DL....
Sugar.Mountain.Spurlos.in.Al...
Sugar.Mountain.Spurlos.in.Al...

XXX
WankItNow.18.03.17.Dolly.Suc...
GetYourKneesDirty.18.03.12.K...
WebYoung.18.03.16.Elsa.Jean....
Geki.Ranko.Yuki.Aida.XXX.108...
BlackSinner.17.06.20.Sheena....
ATKHairy.18.03.19.Niki.Snow....
GermanGooGirls.18.03.16.Ria....
Geki.Ranko.Yuki.Aida.XXX.720...
Watch4Beauty.18.03.21.Angel....
BlackSinner.17.06.20.Rochell...
WhenGirlsPlay.18.03.20.Amili...
Vixen.18.03.20.Tori.Black.XX...
YoungBusty.17.12.25.Jeanne.X...
YoungBusty.17.12.18.Nicole.L...
GhettoGaggers.E407.Shae.Spre...
YoungBusty.17.12.04.Nikki.Dr...
WetAndPuffy.18.03.19.Lucia.D...
Blacked.18.03.16.Abella.Dang...
GhettoGaggers.E406.Sharee.2....
YoungBusty.17.12.11.Anabelle...

3D
Norwegen.3D.2013.MULTi.COMPL...
Star.Wars.Episode.VIII.Die.l...
Star.Wars.Episode.VIII.Die.l...
Star.Wars.Episode.VIII.Die.l...
Jumanji.Welcome.To.The.Jungl...
Star.Wars.The.Last.Jedi.2017...
Final.Storm.Der.Untergang.de...
Final.Storm.Der.Untergang.de...
Jumanji.Willkommen.im.Dschun...
Star.Wars.Episode.VIII.Die.l...
Star.Wars.Episode.VIII.Die.l...
Nightmare.Schlaf.nicht.ein.2...
Justice.League.3D.2017.HOU.G...
Coco.Lebendiger.als.das.Lebe...
Coco.Lebendiger.als.das.Lebe...

Old_Stuff
Lawless.Die.Gesetzlosen.2012...
Cargo.Da.draussen.bist.du.al...
Nachts.im.Museum.2.2009.Germ...
Nachts.im.Museum.2006.German...
North.Country.Kaltes.Land.20...
Fuenf.Freunde.German.1080p.B...
Sin.City.2005.Theatrical.Cut...
Nuts.Durchgedreht.1987.Germa...
Antarctica.Gefangen.Im.Eis.2...
Terminator.2.Tag.Der.Abrechn...
Winters.Tale.2014.German.108...
Kampf.Der.Titanen.2010.Germa...
Bibi.und.Tina.Tohuwabohu.Tot...
Bibi.und.Tina.voll.Verhext.2...
Cargo.Da.draussen.bist.du.al...

Filme
Pitch.Perfect.2.2015.German....
Pitch.Perfect.2.2015.German....
Elysium.German.DL.1080p.BluR...
Elysium.German.720p.BluRay.x...
Der.Atemzug.2009.German.SUBB...
Der.Atemzug.2009.German.SUBB...
Elysium.2013.German.DL.1080p...
Pitch.Perfect.2012.German.DL...
Pitch.Perfect.2012.German.DL...
How.to.be.Das.Leben.ist.kein...
Heroes.of.War.Assembly.Germa...
Schuldig.bei.Verdacht.1991.G...
Fear.The.Walking.Dead.S04.Ge...
Fear.The.Walking.Dead.S04.Ge...
Blood.Drive.S01.GERMAN.DUBBE...
Westworld.S02.German.Dubbed....
Westworld.S02.German.Dubbed....
Legion.S02.German.DL.1080p.H...
Legion.S02.German.DL.720p.HD...
Swimming.Pool.2003.German.DL...
Good.Will.Hunting.1997.Germa...
Dreimal.ist.einmal.zu.viel.2...
Helldriver.2010.German.1080p...
Bye.Bye.Love.1995.German.AC3...

 
 
South.Park.S21.COMPLETE.German.DD20.Dubbed.DL.720p.AmazonHD.h264-GDR
Jahr: 2017
Genre: Animation | Komödie
Sprache: Deutsch AC3 | Englisch AC3
Laufzeit: 22min je Folge
Bitrate: 1500 Kbps
Format: MKV
Größe: 300 MB je Folge
Release:

Beschreibung:

South Park ist eine animierte US-amerikanische Fernsehserie von Trey Parker und Matt Stone. Sie läuft seit 1997 auf dem US-Kabelsender Comedy Central und besteht derzeit aus über 140 Episoden in 10 Staffeln. In Deutschland wird die Serie auf RTL und MTV ausgestrahlt. Angefangen hat alles mit dem Videoclip ‘The Spirit Of Christmas II’, die von Matt und Trey als Weihnachtskarte für einen Freund im Filmgeschäft produziert wurde. Die Karte wurde so oft durch Hollywood verschickt, bis die beiden irgendwann gefragt wurden, ob sie daraus eine Fernsehserie machen wollen und bekamen den Auftrag, 6 Folgen zu produzieren.

 

enthaltene Folgen (Staffel komplett):

South.Park.S21E01.Weisse.renovieren.Haeuser.German.DD20.Dubbed.DL.720p.AmazonHD.h264-GDR

South.Park.S21E02.Leg.es.weg.German.DD20.Dubbed.DL.720p.AmazonHD.h264-GDR

South.Park.S21E03.Feiertagsspezial.German.DD20.Dubbed.DL.720p.AmazonHD.h264-GDR

South.Park.S21E04.Franchise.Prequel.German.DD20.Dubbed.DL.720p.AmazonHD.h264-GDR

South.Park.S21E05.Hummelfiguren.und.Heroin.German.DD20.Dubbed.DL.720p.AmazonHD.h264-GDR

South.Park.S21E06.Hexensoehne.German.DD20.Dubbed.DL.720p.AmazonHD.h264-GDR

South.Park.S21E07.Jahrestag.German.DD20.Dubbed.DL.720p.AmazonHD.h264-GDR NEU

South.Park.S21E08.Moos.Ferkel.German.DD20.Dubbed.DL.720p.AmazonHD.h264-GDR

South.Park.S21E09.Total.PC.German.DD20.Dubbed.DL.720p.AmazonHD.h264-GDR

South.Park.S21E10.Zermatschte.Tomate.German.DD20.Dubbed.DL.720p.AmazonHD.h264-GDR NEU

 



General
Complete name                            : South.Park.S21E01.Weisse.renovieren.Haeuser.German.DD20.Dubbed.DL.720p.AmazonHD.h264-GDR.mkv
Format                                   : Matroska
Format version                           : Version 4 / Version 2
File size                                : 316 MiB
Duration                                 : 22mn 10s
Overall bit rate                         : 1 994 Kbps
Encoded date                             : UTC 2018-02-05 13:31:11
Writing application                      : mkvmerge v8.2.0 ('World of Adventure') 32bit
Writing library                          : libebml v1.3.1 + libmatroska v1.4.2
DURATION                                 : 00:22:10.432000000
NUMBER_OF_FRAMES                         : 41576
NUMBER_OF_BYTES                          : 31930368
_STATISTICS_WRITING_APP                  : mkvmerge v8.2.0 ('World of Adventure') 32bit
_STATISTICS_WRITING_DATE_UTC             : 2018-02-05 13:31:11
_STATISTICS_TAGS                         : BPS DURATION NUMBER_OF_FRAMES NUMBER_OF_BYTES

Video
ID                                       : 1
Format                                   : AVC
Format/Info                              : Advanced Video Codec
Format profile                           : High@L4.1
Format settings, CABAC                   : Yes
Format settings, ReFrames                : 9 frames
Codec ID                                 : V_MPEG4/ISO/AVC
Duration                                 : 22mn 10s
Bit rate                                 : 1 538 Kbps
Width                                    : 1 280 pixels
Height                                   : 720 pixels
Display aspect ratio                     : 16:9
Frame rate mode                          : Constant
Frame rate                               : 23.976 fps
Color space                              : YUV
Chroma subsampling                       : 4:2:0
Bit depth                                : 8 bits
Scan type                                : Progressive
Bits/(Pixel*Frame)                       : 0.070
Stream size                              : 244 MiB (77%)
Writing library                          : x264 core 148 r2744 b97ae06
Encoding settings                        : cabac=1 / ref=9 / deblock=1:-3:-3 / analyse=0x3:0x133 / me=umh / subme=10 / psy=1 / psy_rd=1.00:0.00 / mixed_ref=1 / me_range=48 / chroma_me=1 / trellis=2 / 8x8dct=1 / cqm=0 / deadzone=21,11 / fast_pskip=1 / chroma_qp_offset=-2 / threads=12 / lookahead_threads=2 / sliced_threads=0 / nr=0 / decimate=0 / interlaced=0 / bluray_compat=0 / constrained_intra=0 / bframes=8 / b_pyramid=2 / b_adapt=2 / b_bias=0 / direct=3 / weightb=1 / open_gop=0 / weightp=2 / keyint=240 / keyint_min=23 / scenecut=40 / intra_refresh=0 / rc=crf / mbtree=0 / crf=17.0 / qcomp=0.60 / qpmin=0 / qpmax=69 / qpstep=4 / ip_ratio=1.40 / pb_ratio=1.30 / aq=3:0.70
Language                                 : German
Default                                  : Yes
Forced                                   : No

Audio #1
ID                                       : 2
Format                                   : AC-3
Format/Info                              : Audio Coding 3
Mode extension                           : CM (complete main)
Format settings, Endianness              : Big
Codec ID                                 : A_AC3
Duration                                 : 22mn 10s
Bit rate mode                            : Constant
Bit rate                                 : 192 Kbps
Channel(s)                               : 2 channels
Channel positions                        : Front: L R
Sampling rate                            : 48.0 KHz
Bit depth                                : 16 bits
Compression mode                         : Lossy
Stream size                              : 30.5 MiB (10%)
Language                                 : German
Default                                  : Yes
Forced                                   : No

Audio #2
ID                                       : 3
Format                                   : E-AC-3
Format/Info                              : Audio Coding 3
Format settings, Endianness              : Big
Codec ID                                 : A_EAC3
Duration                                 : 22mn 10s
Bit rate mode                            : Constant
Bit rate                                 : 224 Kbps
Channel(s)                               : 2 channels
Channel positions                        : Front: L R
Sampling rate                            : 48.0 KHz
Compression mode                         : Lossy
Stream size                              : 35.5 MiB (11%)
Language                                 : English
Default                                  : No
Forced                                   : No

Text
ID                                       : 4
Format                                   : UTF-8
Codec ID                                 : S_TEXT/UTF8
Codec ID/Info                            : UTF-8 Plain Text
Language                                 : English
Default                                  : No
Forced                                   : No



Download:
Share-Online.biz Share-Online.bizShare-Online.bizShare-Online.biz | Rapidgator.net Rapidgator.netRapidgator.netRapidgator.net
 

Kommentare