DNS SERVER AENDERNum der staatlichen Zensur zu umgehen. Sollten wir von eurem Provider geseprrt werden, nutzt den TOR BROWSER oder ändert euren DNS SERVER.

Filmwünsche können bei uns im Forum abgegeben werden

Wir Speichern Nicht




 
 
 
Top Releases
Norman.2016.German.AC3D.DL.1...
Wo.steckt.Sidney.Hall.2017.G...
Chappie.2015.German.AC3.DL.1...
Solo.A.Star.Wars.Story.2018....
Der.Buchladen.der.Florance.G...
Jurassic.World.2.Das.gefalle...
Jurassic.World.2.Das.gefalle...
Racer.and.the.Jailbird.2017....
Racer.and.the.Jailbird.2017....
Racer.and.the.Jailbird.2017....

Cinedubs
First.Reformed.2017.German.D...
Mamma.Mia.2.Here.We.Go.Again...
First.Reformed.German.DL.AC3...
The.First.Purge.2018.German....
No.Way.Out.Gegen.die.Flammen...
First.Reformed.German.DL.AC3...
First.Reformed.German.DL.AC3...
The.First.Purge.German.DL.AC...
The.First.Purge.German.DL.AC...
Book.Club.Das.Beste.kommt.n...

Neuerscheinungen 2017-18
Mom.and.Dad.2017.German.AC3....
Jurassic.World.2.Das.gefalle...
Jurassic.World.2.Das.gefalle...
Zombie.Nightmare.1987.MULTi....
The.Boneyard.1991.MULTi.COMP...
Rueckenwind.von.vorn.2018.Ge...
Rueckenwind.von.vorn.2018.Ge...
The.Hurricane.Heist.2018.Ger...
Alte.Zoepfe.2018.German.DL.1...
Alte.Zoepfe.2018.German.DL.7...

XXX
PlumperPass.18.09.10.Dippd.N...
Nubiles.18.09.09.Zoe.Parker....
NuruMassage.18.09.07.Emma.Hi...
PornMegaLoad.18.09.06.Demmy....
PlayboyPlus.18.09.10.Sea.Ros...
PlayboyPlus.18.09.09.Mashup....
NothingButCurves.18.09.07.Ch...
PornMegaLoad.18.09.06.Mia.Ma...
NothingButCurves.18.09.03.Fr...
Nubiles.18.09.09.Angy.Kiss.P...
PornMegaLoad.18.09.08.Rachae...
PlumperPass.18.09.07.Kendra....
NothingButCurves.18.08.26.Ga...
NothingButCurves.18.08.30.Sa...
Orientation.3.XXX.1080p.WEBR...
PervMom.18.08.30.Lauren.Phil...
POVManiaXXX.18.08.31.Cheri.D...
PornMegaLoad.18.09.06.Berlyn...
Nubiles.18.09.07.Charlie.Red...
PornMegaLoad.18.09.06.Kiki.R...

3D
Solo.A.Star.Wars.Story.3D.20...
Solo.A.Star.Wars.Story.3D.20...
Die.Biene.Maja.2.Die.Honigsp...
Avengers.Infinity.War.3D.201...
Avengers.Infinity.War.3D.201...
Rampage.Big.Meets.Bigger.3D....
Rampage.Big.Meets.Bigger.3D....
Rampage.Big.Meets.Bigger.3D....
Winter.Games.3D.2013.DUAL.CO...
Tomb.Raider.3D.2018.German.7...
Rampage.Big.Meets.Bigger.3D....
Rampage.Big.Meets.Bigger.3D....
Tomb.Raider.3D.2018.MULTi.CO...
Pacific.Rim.Uprising.3D.2018...
Ready.Player.One.3D.2018.Ger...

Old_Stuff
Schimanski.-.Duisburg.Ruhror...
Akte.X.S02.German.DTS.DL.108...
How.I.Met.Your.Mother.S02.Ge...
Akte.X.S01.German.DTS.DL.108...
Den.Himmel.gibts.echt.DL.108...
Vikings.S02.German.DL.1080p....
Be.Kind.Rewind.Abgedreht.200...
Be.Kind.Rewind.Abgedreht.200...
Dracula.The.Dark.Lord.2012.G...
21.2008.German.DL.1080p.BluR...
Achtung.fertig.WK.Swissgerma...
The.Ouija.Exorcism.2015.MULT...
Meine.liebe.Rabenmutter.germ...
Da.Vincis.Demons.S01.Complet...
Eragon.Das.Vermaechtnis.der....

Filme
Loewengrube.1989.S01D01.GERM...
Die.Vermaehlung.ihrer.Eltern...
X.Men.2000.German.DL.2160p.U...
Perfect.World.aka.A.Perfect....
Perfect.World.1993.German.DL...
Stalag.17.1953.German.AC3D.7...
Animal.Kingdom.S03.GERMAN.72...
Supernatural.S13.DL.DD51.Dub...
Supernatural.S13.DL.DD51.Dub...
Longmire.S05.COMPLETE.GERMAN...
Snowfall.S02.German.DD51.Dub...
Into.the.Badlands.S03.German...
Into.the.Badlands.S03.German...
Animal.Kingdom.S03.GERMAN.DD...
Die.Nadel.1981.German.AC3.DL...
Saw.III.Directors.Cut.2006.G...
Meine.teuflischen.Nachbarn.1...
Gorillas.im.Nebel.1988.Germa...
Paparazzi.2004.German.AC3D.D...
Shaolin.Kickers.aka.Shaolin....
Three.Burials.Die.drei.Begra...
Moulin.Rouge.2001.German.DL....
Jurassic.World.2.Das.gefalle...
Saw.I.Directors.Cut.2004.Ger...

 
 
South.Park.S21.COMPLETE.German.DD20.Dubbed.DL.1080p.AmazonHD.h264-GDR
Jahr: 2017
Genre: Komödie
Sprache: Deutsch AC3 | Englisch AC3
Laufzeit: 22min je Folge
Bitrate: 2500 Kbps
Format: MKV
Größe: 500 MB je Folge
Release:

Beschreibung:

South Park ist eine animierte US-amerikanische Fernsehserie von Trey Parker und Matt Stone. Sie läuft seit 1997 auf dem US-Kabelsender Comedy Central und besteht derzeit aus über 140 Episoden in 10 Staffeln. In Deutschland wird die Serie auf RTL und MTV ausgestrahlt. Angefangen hat alles mit dem Videoclip ‘The Spirit Of Christmas II’, die von Matt und Trey als Weihnachtskarte für einen Freund im Filmgeschäft produziert wurde. Die Karte wurde so oft durch Hollywood verschickt, bis die beiden irgendwann gefragt wurden, ob sie daraus eine Fernsehserie machen wollen und bekamen den Auftrag, 6 Folgen zu produzieren.

 

enthaltene Folgen (Staffel komplett):

South.Park.S21E01.Weisse.renovieren.Haeuser.German.DD20.Dubbed.DL.1080p.AmazonHD.h264-GDR

South.Park.S21E02.Leg.es.weg.German.DD20.Dubbed.DL.1080p.AmazonHD.h264-GDR

South.Park.S21E03.Feiertagsspezial.German.DD20.Dubbed.DL.1080p.AmazonHD.h264-GDR

South.Park.S21E04.Franchise.Prequel.German.DD20.Dubbed.DL.1080p.AmazonHD.h264-GDR

South.Park.S21E05.Hummelfiguren.und.Heroin.German.DD20.Dubbed.DL.1080p.AmazonHD.h264-GDR

South.Park.S21E06.Hexensoehne.German.DD20.Dubbed.DL.1080p.AmazonHD.h264-GDR

South.Park.S21E07.Jahrestag.German.DD20.Dubbed.DL.1080p.AmazonHD.h264-GDR NEU

South.Park.S21E08.Moos.Ferkel.German.DD20.Dubbed.DL.1080p.AmazonHD.h264-GDR

South.Park.S21E09.Total.PC.German.DD20.Dubbed.DL.1080p.AmazonHD.h264-GDR

South.Park.S21E10.Zermatschte.Tomate.German.DD20.Dubbed.DL.1080p.AmazonHD.h264-GDR NEU

 



General

Complete name                            : South.Park.S21E01.Weisse.renovieren.Haeuser.German.DD20.Dubbed.DL.1080p.AmazonHD.h264-GDR.mkv
Format                                   : Matroska
Format version                           : Version 4 / Version 2
File size                                : 484 MiB
Duration                                 : 22mn 10s
Overall bit rate mode                    : Variable
Overall bit rate                         : 3 050 Kbps
Encoded date                             : UTC 2018-02-05 13:31:44
Writing application                      : mkvmerge v8.2.0 ('World of Adventure') 32bit
Writing library                          : libebml v1.3.1 + libmatroska v1.4.2
DURATION                                 : 00:22:10.432000000
NUMBER_OF_FRAMES                         : 41576
NUMBER_OF_BYTES                          : 31930368
_STATISTICS_WRITING_APP                  : mkvmerge v8.2.0 ('World of Adventure') 32bit
_STATISTICS_WRITING_DATE_UTC             : 2018-02-05 13:31:44
_STATISTICS_TAGS                         : BPS DURATION NUMBER_OF_FRAMES NUMBER_OF_BYTES

Video
ID                                       : 1
Format                                   : AVC
Format/Info                              : Advanced Video Codec
Format profile                           : High@L4.0
Format settings, CABAC                   : Yes
Format settings, ReFrames                : 4 frames
Codec ID                                 : V_MPEG4/ISO/AVC
Duration                                 : 22mn 10s
Bit rate mode                            : Variable
Bit rate                                 : 2 574 Kbps
Maximum bit rate                         : 15.0 Mbps
Width                                    : 1 920 pixels
Height                                   : 1 080 pixels
Display aspect ratio                     : 16:9
Frame rate mode                          : Constant
Frame rate                               : 23.976 fps
Color space                              : YUV
Chroma subsampling                       : 4:2:0
Bit depth                                : 8 bits
Scan type                                : Progressive
Bits/(Pixel*Frame)                       : 0.052
Stream size                              : 408 MiB (84%)
Language                                 : German
Default                                  : Yes
Forced                                   : No
Color primaries                          : BT.709
Transfer characteristics                 : BT.709
Matrix coefficients                      : BT.709

Audio #1
ID                                       : 2
Format                                   : AC-3
Format/Info                              : Audio Coding 3
Mode extension                           : CM (complete main)
Format settings, Endianness              : Big
Codec ID                                 : A_AC3
Duration                                 : 22mn 10s
Bit rate mode                            : Constant
Bit rate                                 : 192 Kbps
Channel(s)                               : 2 channels
Channel positions                        : Front: L R
Sampling rate                            : 48.0 KHz
Bit depth                                : 16 bits
Compression mode                         : Lossy
Stream size                              : 30.5 MiB (6%)
Language                                 : German
Default                                  : Yes
Forced                                   : No

Audio #2
ID                                       : 3
Format                                   : E-AC-3
Format/Info                              : Audio Coding 3
Format settings, Endianness              : Big
Codec ID                                 : A_EAC3
Duration                                 : 22mn 10s
Bit rate mode                            : Constant
Bit rate                                 : 224 Kbps
Channel(s)                               : 2 channels
Channel positions                        : Front: L R
Sampling rate                            : 48.0 KHz
Compression mode                         : Lossy
Stream size                              : 35.5 MiB (7%)
Language                                 : English
Default                                  : No
Forced                                   : No

Text
ID                                       : 4
Format                                   : UTF-8
Codec ID                                 : S_TEXT/UTF8
Codec ID/Info                            : UTF-8 Plain Text
Language                                 : English
Default                                  : No
Forced                                   : No



Download:
Share-Online.biz Share-Online.bizShare-Online.bizShare-Online.biz | Rapidgator.net Rapidgator.netRapidgator.netRapidgator.net
 

Kommentare