HD-AREA wünscht Euch eine besinnliche Weihnachtszeit ;)

DNS SERVER AENDERNum der staatlichen Zensur zu umgehen. Sollten wir von eurem Provider geseprrt werden, nutzt den TOR BROWSER oder ändert euren DNS SERVER.

Filmwünsche können bei uns im Forum abgegeben werden

Wir Speichern Nicht




 
 
 
Top Releases
Von.Loewen.und.Laemmern.2007...
The.Hateful.8.2015.German.AC...
Der.Unsichtbare.Gast.2016.Ge...
BlacKkKlansman.2018.German.A...
Von.Loewen.und.Laemmern.2007...
Von.Loewen.und.Laemmern.2007...
Von.Loewen.und.Laemmern.2007...
Braven.2018.German.AC3.DL.10...
The.Last.Movie.Star.2017.DUA...
The.Infiltrator.2016.German....

Cinedubs
Johnny.English.Man.lebt.nur....
Johnny.English.Man.lebt.nur....
Johnny.English.Man.lebt.nur....
Phantastische.Tierwesen.Grin...
Phantastische.Tierwesen.Grin...
The.Guilty.2018.German.AC3D....
The.Guilty.2018.German.AC3D....
Aufbruch.zum.Mond.German.DL....
Aufbruch.zum.Mond.German.DL....
Night.School.2018.GERMAN.DL....

Neuerscheinungen 2017-18
Slender.Man.German.DL.720p.B...
Slender.Man.German.DL.1080p....
Monster.Hunt.2.2018.GERMAN.1...
Monster.Hunt.2.2018.GERMAN.7...
Monster.Hunt.2.2018.GERMAN.D...
The.Howling.1981.MULTI.COMPL...
Monster.Hunt.2.2018.DUAL.COM...
Slender.Man.2018.MULTi.COMPL...
Der.Teufelsschrei.Evilspeak....
Ultimate.Justice.Toeten.oder...

XXX
LaurenPhillips.17.08.04.Game...
FatManFuck.18.07.01.Lola.Rae...
Lubed.18.12.10.Kiara.Cole.Te...
LaurenPhillips.17.09.01.Devo...
HardX.18.12.11.Jane.Wilde.Dr...
HollyRandall.18.12.11.Nicole...
ManuelFerrara.18.12.10.Kayla...
FatManFuck.18.09.23.Dolly.XX...
LoneMilf.18.12.10.Summer.Har...
HotLegsAndFeet.18.12.11.Barb...
FatManFuck.18.09.02.Skyler.S...
Horror.Shop.Vol.2.XXX.1080p....
LaurenPhillips.17.07.21.Play...
LetsTryAnal.18.12.11.Emily.W...
LaurenPhillips.17.08.25.Let....
Hustler.18.12.09.Britney.Amb...
FatManFuck.18.06.30.Little.T...
HornyDoctor.18.12.10.Karol.L...
FatManFuck.18.06.24.Lauren.C...
HeavyOnHotties.18.12.11.Frai...

3D
Meg.3D.2018.MULTi.COMPLETE.B...
Meg.3D.2018.German.DL.1080p....
Gans.im.Glueck.3D.2018.MULTi...
The.Art.of.Flight.3D.2011.Ge...
The.End.Of.The.World.3D.2010...
The.First.Avenger.Civil.War....
Die.Unglaublichen.2.2018.3D....
Skyscraper.3D.2018.MULTi.COM...
Ant-Man.And.The.Wasp.3D.2018...
Ant.Man.and.the.Wasp.3D.2018...
Die.Unglaublichen.2.3D.2018....
Die.Unglaublichen.2.2018.3D....
Die.Unglaublichen.2.2018.3D....
Sharknado.6.The.Last.One.3D....
Deep.Kleine.Helden.der.Tiefs...

Old_Stuff
Akte.X.S05.German.DTS.DL.108...
Akte.X.S04.German.DTS.DL.108...
Akte.X.S03.German.DTS.DL.108...
Dunkirk.1958.COMPLETE.BLURAY...
Das.Wunder.von.Manhattan.199...
The.Amazing.Spiderman.2.Rise...
Rise.of.the.Predator.2014.Ge...
Detective.Dee.und.das.Geheim...
Detective.Dee.Und.Der.Fluch....
Ghost.Rider.Spirit.of.Vengea...
Species.IV.Das.Erwachen.2007...
Species.IV.Das.Erwachen.2007...
Hotel.Transsilvanien.2012.Ge...
The.Dead.2010.German.DL.1080...
The.Dead.2.India.2013.German...

Filme
Young.Adam.Dunkle.Leidenscha...
Spaceballs.1987.HDR2SDR.1080...
Bleeder.1999.German.DL.1080p...
Eine.Leiche.zum.Dessert.1976...
Plane.Dead.-.Zombies.on.a.Pl...
Die.Nackten.und.die.Toten.19...
Das.Schlafzimmerfenster.aka....
So.wie.wir.waren.1973.German...
Schindlers.Liste.1993.German...
Jesse.James.Mann.ohne.Gesetz...
Modern.Family.S09.GERMAN.DUB...
Modern.Family.S09.GERMAN.DUB...
MADIBA.S01D01-2.MULTi.COMPLE...
Suits.S07.COMPLETE.German.DL...
Summer.Shark.Attack.2016.Ger...
Fail.State.2017.1080p.WEB.H2...
Sugarhouse.2007.German.DL.10...
Suicide.Note.Falscher.Verdac...
Suicide.Squad.2016.German.TH...
Summer.of.Sam.1999.German.AC...
Summer.Scars.2007.German.DL....
Robin.Williams.Come.Inside.M...
Black.Book.2006.German.AC3D....
In.Sachen.Liebe.1997.German....

 
 
Billions.S03.GERMAN.DL.AC3.1080p.HDTV.x264-CMOS
Jahr: 2018
Genre: Drama
Sprache: Deutsch AC3 | Englisch AC3
Laufzeit: 55min je Folge
Bitrate: 5000 Kbps
Format: MKV
Größe: 2,2 GB je Folge
Release:

Beschreibung:

Die US-Serie „Billions“ spielt in der Finanzwelt der Wall Street, wo der United States Attorney Chuck Rhodes (Paul Giamatti) mit dem Hedgefonds-Mastermind Bobby Axelrod (Damian Lewis) aneinandergerät. In einem Geflecht aus Politik und Intrigen stehen Milliarden auf dem Spiel.

Im Fokus der Serie steht der Disput zwischen dem karrierefixierten, politisch motivierten Anwalt Rhoades und dem Selfmade-Milliardär Bobby „Axe“ Axelrod. Zwischen beiden steht Roades' Ehefrau Wendy (Maggie Siff), die bei „Axe Capital“ als Psychologin arbeitet. Als Chuck beschließt, Axelrod anzuklagen, kommt es zum Interessenskonflikt. Bobby kann sich bei der bevorstehenden medialen Schlammschlacht auf seine Ehefrau Lara (Malin Akerman) verlassen, die mit ähnlicher Angriffslust ausgestattet ist wie er.

Zusammen mit dem Wirtschaftsjournalisten Andrew Ross Sorkin ersonnen die beiden erfahrenen Drehbuchautoren David Levien und Brian Koppelman die Idee zur Serie. Produziert wird das Format von Showtime Entertainment.

 

enthaltene Folgen:

​Billions.S03E01.Die.Ritter.der.Tafelrunde.GERMAN.DL.AC3.1080p.HDTV.x264-CMOS

Billions.S03E02.Die.falsche.Maria.Gonzalez.GERMAN.DL.1080p.HDTV.x264-CMOS

Billions.S03E03.Verwaiste.Milliarden.GERMAN.DL.1080p.HDTV.x264-CMOS

Billions.S03E04.Ein.Grab.in.Manhattan.GERMAN.DL.1080p.HDTV.x264-CMOS

Billions.S03E05.Einer.von.uns.GERMAN.DL.1080p.HDTV.x264-CMOS

Billions.S03E06.Der.dritte.Ortolan.German.DD51.Dubbed.DL.1080p.AmazonHD.x264-TVS

Billions.S03E07.Irgendwer.muss.buessen.GERMAN.DL.1080p.HDTV.x264-CMOS

Billions.S03E08.Wir.haben.alle.Narben.GERMAN.DL.1080p.HDTV.x264-CMOS

Billions.S03E09.Der.sibirische.Braunbaer.GERMAN.DL.1080p.HDTV.x264-CMOS

Billions.S03E10.Maenner.mit.Muettern.GERMAN.DL.1080p.HDTV.x264-CMOS

Billions.S03E11.Die.Geldspur.GERMAN.DL.1080p.HDTV.x264-CMOS NEU

Billions.S03E12.Der.Atem.des.Tigers.GERMAN.DL.1080p.HDTV.x264-CMOS NEU



General

Complete name                            : Billions.S03E01.Die.Ritter.der.Tafelrunde.GERMAN.DL.AC3.1080p.HDTV.x264-CMOS\Billions.S03E01.Die.Ritter.der.Tafelrunde.GERMAN.DL.AC3.1080p.HDTV.x264-CMOS.mkv
Format                                   : Matroska
Format version                           : Version 4 / Version 2
File size                                : 2.24 GiB
Duration                                 : 55mn 16s
Overall bit rate                         : 5 792 Kbps
Movie name                               : Billions.S03E01.Die.Ritter.der.Tafelrunde.GERMAN.DL.AC3.1080p.HDTV.x264-CMOS
Encoded date                             : UTC 2018-03-26T20:18:35Z
Writing application                      : HandBrake 1.0.4 2017040900
Writing library                          : Lavf57.7.2

Video
ID                                       : 1
Format                                   : AVC
Format/Info                              : Advanced Video Codec
Format profile                           : High@L4.1
Format settings, CABAC                   : Yes
Format settings, ReFrames                : 4 frames
Codec ID                                 : V_MPEG4/ISO/AVC
Duration                                 : 55mn 16s
Bit rate                                 : 5 000 Kbps
Width                                    : 1 920 pixels
Height                                   : 1 080 pixels
Display aspect ratio                     : 16:9
Frame rate mode                          : Constant
Frame rate                               : 25.000 fps
Color space                              : YUV
Chroma subsampling                       : 4:2:0
Bit depth                                : 8 bits
Scan type                                : Progressive
Bits/(Pixel*Frame)                       : 0.096
Stream size                              : 1.89 GiB (85%)
Writing library                          : x264 core 148 r2643 5c65704
Encoding settings                        : cabac=1 / ref=4 / deblock=1:-3:-3 / analyse=0x3:0x3 / me=umh / subme=7 / psy=1 / psy_rd=1,00:0,15 / mixed_ref=0 / me_range=16 / chroma_me=1 / trellis=1 / 8x8dct=1 / cqm=0 / deadzone=21,11 / fast_pskip=0 / chroma_qp_offset=-3 / threads=24 / lookahead_threads=4 / sliced_threads=0 / nr=0 / decimate=1 / interlaced=0 / bluray_compat=0 / constrained_intra=0 / bframes=3 / b_pyramid=2 / b_adapt=1 / b_bias=0 / direct=1 / weightb=0 / open_gop=0 / weightp=0 / keyint=250 / keyint_min=25 / scenecut=40 / intra_refresh=0 / rc_lookahead=0 / rc=abr / mbtree=0 / bitrate=5000 / ratetol=1,0 / qcomp=0,60 / qpmin=0 / qpmax=69 / qpstep=4 / vbv_maxrate=62500 / vbv_bufsize=78125 / nal_hrd=none / filler=0 / ip_ratio=1,40 / pb_ratio=1,30 / aq=1:1,00
Default                                  : Yes
Forced                                   : No
Color primaries                          : BT.709
Transfer characteristics                 : BT.709
Matrix coefficients                      : BT.709

Audio #1
ID                                       : 2
Format                                   : AC-3
Format/Info                              : Audio Coding 3
Mode extension                           : CM (complete main)
Format settings, Endianness              : Big
Codec ID                                 : A_AC3
Duration                                 : 55mn 16s
Bit rate mode                            : Constant
Bit rate                                 : 384 Kbps
Channel(s)                               : 6 channels
Channel positions                        : Front: L C R, Side: L R, LFE
Sampling rate                            : 48.0 KHz
Bit depth                                : 16 bits
Compression mode                         : Lossy
Delay relative to video                  : -4ms
Stream size                              : 152 MiB (7%)
Title                                    : Surround
Language                                 : German
Default                                  : Yes
Forced                                   : No

Audio #2
ID                                       : 3
Format                                   : AC-3
Format/Info                              : Audio Coding 3
Mode extension                           : CM (complete main)
Format settings, Endianness              : Big
Codec ID                                 : A_AC3
Duration                                 : 55mn 16s
Bit rate mode                            : Constant
Bit rate                                 : 384 Kbps
Channel(s)                               : 2 channels
Channel positions                        : Front: L R
Sampling rate                            : 48.0 KHz
Bit depth                                : 16 bits
Compression mode                         : Lossy
Delay relative to video                  : 6ms
Stream size                              : 152 MiB (7%)
Title                                    : Stereo
Language                                 : English
Default                                  : No
Forced                                   : No



Download:
Share-Online.biz Share-Online.bizShare-Online.bizShare-Online.biz | Rapidgator.net Rapidgator.netRapidgator.netRapidgator.net
 

Kommentare

  1. Geschrieben am 9. May 2018, 14:34 Uhr von bernd das brot · #

    Folge 6 läuft nicht

    / warum nicht?
  2. Geschrieben am 11. May 2018, 19:58 Uhr von Milchfett · #

    folge 6 funzt einwandfrei…
    wurde gefixt oder war nie defekt

    / wurde nicht gefixt.
  3. Geschrieben am 16. May 2018, 10:50 Uhr von bernd das brot · #

    leider kommt trotz mehrmaligen Ladens die Folge 6 nur mit grünem Hintergrund und Ton, alles andere läuft

    / Playerproblem, schätze ich jetzt mal.
  4. Geschrieben am 17. May 2018, 00:32 Uhr von milchfett · #

    also nach dem schauen muss ich das bestätigen… folge hat nach ein paar minuten extrem geruckelt… ton lief einwandfrei durch… (kodi 17.6 auf fire tv 2) alle anderen folgen einwandfrei