Die aktuelle Sicherheitswarnung bei Filecrypt kann ignoriert werden! Man kümmert sich um das Problem!

DNS SERVER AENDERNum der staatlichen Zensur zu umgehen. Sollten wir von eurem Provider geseprrt werden, nutzt den TOR BROWSER oder ändert euren DNS SERVER.

Filmwünsche können bei uns im Forum abgegeben werden

Wir Speichern Nicht




 
 
 
Top Releases
Pitch.Perfect.3.2017.MULTI.C...
Pitch.Perfect.2012.MULTi.COM...
Allied.2016.MULTi.COMPLETE.U...
Die.Unsichtbaren.Wir.wollen....
Bill.Was.fuer.ein.Theater.Bi...
Bill.Was.fuer.ein.Theater.20...
Bill.Was.fuer.ein.Theater.20...
Lady.Macbeth.2016.MULTI.COMP...
Lady.Macbeth.2016.GERMAN.DL....
Lady.Macbeth.2016.GERMAN.720...

Cinedubs
Peter.Hase.2018.German.MD.DL...
Peter.Hase.2018.German.MD.DL...
Pacific.Rim.2.Uprising.Germa...
Pacific.Rim.2.Uprising.Germa...
Winchester.2018.German.AC3MD...
Winchester.2018.German.AC3MD...
Red.Sparrow.German.DL.AC3.Du...
Red.Sparrow.German.DL.AC3.Du...
The.Humanity.Bureau.2017.Ger...
Wer.ist.Daddy.German.DL.AC3....

Neuerscheinungen 2017-18
Deep.Blue.Sea.2.2018.German....
Deep.Blue.Sea.2.2018.German....
Die.Befreiung.Teil.1-5.1970....
Die.Befreiung.Teil.1-5.1970....
Deep.Blue.Sea.2.2018.MULTI.C...
Death.Racers.2008.GERMAN.DL....
Sugar.Mountain.Spurlos.in.Al...
Sugar.Mountain.Spurlos.in.Al...
Death.Racers.2008.COMPLETE.B...
House.Harker.Vampirjaeger.wi...

XXX
WankItNow.18.03.17.Dolly.Suc...
GetYourKneesDirty.18.03.12.K...
WebYoung.18.03.16.Elsa.Jean....
Geki.Ranko.Yuki.Aida.XXX.108...
BlackSinner.17.06.20.Sheena....
ATKHairy.18.03.19.Niki.Snow....
GermanGooGirls.18.03.16.Ria....
Geki.Ranko.Yuki.Aida.XXX.720...
Watch4Beauty.18.03.21.Angel....
BlackSinner.17.06.20.Rochell...
WhenGirlsPlay.18.03.20.Amili...
Vixen.18.03.20.Tori.Black.XX...
YoungBusty.17.12.25.Jeanne.X...
YoungBusty.17.12.18.Nicole.L...
GhettoGaggers.E407.Shae.Spre...
YoungBusty.17.12.04.Nikki.Dr...
WetAndPuffy.18.03.19.Lucia.D...
Blacked.18.03.16.Abella.Dang...
GhettoGaggers.E406.Sharee.2....
YoungBusty.17.12.11.Anabelle...

3D
Norwegen.3D.2013.MULTi.COMPL...
Star.Wars.Episode.VIII.Die.l...
Star.Wars.Episode.VIII.Die.l...
Star.Wars.Episode.VIII.Die.l...
Jumanji.Welcome.To.The.Jungl...
Star.Wars.The.Last.Jedi.2017...
Final.Storm.Der.Untergang.de...
Final.Storm.Der.Untergang.de...
Jumanji.Willkommen.im.Dschun...
Star.Wars.Episode.VIII.Die.l...
Star.Wars.Episode.VIII.Die.l...
Nightmare.Schlaf.nicht.ein.2...
Justice.League.3D.2017.HOU.G...
Coco.Lebendiger.als.das.Lebe...
Coco.Lebendiger.als.das.Lebe...

Old_Stuff
Lawless.Die.Gesetzlosen.2012...
Cargo.Da.draussen.bist.du.al...
Nachts.im.Museum.2.2009.Germ...
Nachts.im.Museum.2006.German...
North.Country.Kaltes.Land.20...
Fuenf.Freunde.German.1080p.B...
Sin.City.2005.Theatrical.Cut...
Nuts.Durchgedreht.1987.Germa...
Antarctica.Gefangen.Im.Eis.2...
Terminator.2.Tag.Der.Abrechn...
Winters.Tale.2014.German.108...
Kampf.Der.Titanen.2010.Germa...
Bibi.und.Tina.Tohuwabohu.Tot...
Bibi.und.Tina.voll.Verhext.2...
Cargo.Da.draussen.bist.du.al...

Filme
Brigadoon.1954.German.AC3D.D...
Freaks.1932.German.AC3D.DL.1...
Im.tiefen.Tal.der.Superbabes...
Aligarh.-.Kampf.um.Gerechtig...
Irren.ist.moerderisch.aka.Bl...
Edge.of.Tomorrow.2014.German...
So.ein.Papa.aka.Der.Mann.der...
Robot.Chicken.Star.Wars.Epis...
Hawaii.Five.0.S08.GERMAN.DUB...
Z.Nation.S04.GERMAN.DUBBED.D...
Z.Nation.S04.GERMAN.DUBBED.D...
Navy.CIS.New.Orleans.S03.Ger...
Navy.CIS.New.Orleans.S03.Ger...
9.1.1.S01.GERMAN.DL.1080p.HD...
9.1.1.S01.GERMAN.DL.720p.HDT...
21.Jump.Street.2012.German.D...
Die.Highligen.drei.Koenige.2...
Es.war.einmal.in.Deutschland...
Es.war.einmal.in.Deutschland...
Die.Rache.des.Ninja.1983.Ger...
Sodom.und.Gomorrha.1962.Germ...
Breakdown.1997.German.720p.H...
The.Drop.Bargeld.German.DL.1...
Barbie.Fairytopia.Die.Magie....

 
 
Final.Storm.Der.Untergang.der.Welt.3D.2017.German.DL.720p.BluRay.x264-LizardSquad
Jahr: 2017
Genre: Sci-Fi
Sprache: Deutsch DTS | Englisch DTS
Laufzeit: 1h 24mn
Bitrate: 3 908 Kbps
Format: MKV
Größe: 2.32 GiB
Release:

Beschreibung:

Nick Simons Vater ist gestorben und er muss sich um seinen Nachlass kümmern. Als Nick das Anwesen seines alten Herrn durchstöbert, findet er einen antiken sumerischen Weltuntergangs-Apparat. Durch Unwissenheit und Unachtsamkeit setzt er das Ding in Gang und löst damit eine weltweite Katastrophe ungeahnten Ausmaßes aus. Was Nick nicht ahnen konnte, auch eine Gruppe fieser Verbrecher ist schon ewig hinter diesem Apparat her. Als diese das Artefakt schließlich in ihre Hände bekommen, gibt es für Nick nur noch eine Chance den Untergang der Welt aufzuhalten. Er muss den Weltuntergangs-Apparat wieder zurückholen, um ihn zu stoppen bevor eine gigantische Riesenwelle alles Leben unter sich begräbt.



Complete name                            : Final.Storm.Der.Untergang.der.Welt.3D.2017.German.DL.720p.BluRay.x264-LizardSquad.mkv
Format                                   : Matroska
Format version                           : Version 4 / Version 2
File size                                : 2.32 GiB
Duration                                 : 1h 24mn
Overall bit rate                         : 3 908 Kbps
Encoded date                             : UTC 2018-03-10 03:07:51
Writing application                      : mkvmerge v20.0.0 ('I Am The Sun') 64-bit
Writing library                          : libebml v1.3.5 + libmatroska v1.4.8
DURATION                                 : 00:43:07.285000000
NUMBER_OF_FRAMES                         : 10
NUMBER_OF_BYTES                          : 67401
_STATISTICS_WRITING_APP                  : mkvmerge v20.0.0 ('I Am The Sun') 64-bit
_STATISTICS_WRITING_DATE_UTC             : 2018-03-10 03:07:51
_STATISTICS_TAGS                         : BPS DURATION NUMBER_OF_FRAMES NUMBER_OF_BYTES

Video
ID                                       : 1
Format                                   : AVC
Format/Info                              : Advanced Video Codec
Format profile                           : High@L4.1
Format settings, CABAC                   : Yes
Format settings, ReFrames                : 5 frames
Codec ID                                 : V_MPEG4/ISO/AVC
Duration                                 : 1h 24mn
Bit rate                                 : 2 294 Kbps
Width                                    : 1 280 pixels
Height                                   : 720 pixels
Display aspect ratio                     : 16:9
Frame rate mode                          : Constant
Frame rate                               : 23.976 fps
Color space                              : YUV
Chroma subsampling                       : 4:2:0
Bit depth                                : 8 bits
Scan type                                : Progressive
Bits/(Pixel*Frame)                       : 0.104
Stream size                              : 1.36 GiB (59%)
Writing library                          : x264 core 155 r2901 7d0ff22
Encoding settings                        : cabac=1 / ref=5 / deblock=1:-3:-3 / analyse=0x3:0x133 / me=umh / subme=8 / psy=1 / psy_rd=1.00:0.15 / mixed_ref=1 / me_range=16 / chroma_me=1 / trellis=1 / 8x8dct=1 / cqm=0 / deadzone=21,11 / fast_pskip=0 / chroma_qp_offset=-3 / threads=12 / lookahead_threads=2 / sliced_threads=0 / nr=0 / decimate=1 / interlaced=0 / bluray_compat=0 / constrained_intra=0 / bframes=3 / b_pyramid=2 / b_adapt=2 / b_bias=0 / direct=3 / weightb=1 / open_gop=0 / weightp=2 / keyint=240 / keyint_min=24 / scenecut=40 / intra_refresh=0 / rc_lookahead=50 / rc=crf / mbtree=1 / crf=20.0 / qcomp=0.60 / qpmin=0 / qpmax=69 / qpstep=4 / ip_ratio=1.40 / aq=1:1.00
Language                                 : English
Default                                  : Yes
Forced                                   : No
DURATION                                 : 01:24:55.086000000
NUMBER_OF_FRAMES                         : 122160
NUMBER_OF_BYTES                          : 1508490704
_STATISTICS_WRITING_APP                  : mkvmerge v20.0.0 ('I Am The Sun') 64-bit
_STATISTICS_WRITING_DATE_UTC             : 2018-03-10 03:07:51
_STATISTICS_TAGS                         : BPS DURATION NUMBER_OF_FRAMES NUMBER_OF_BYTES

Audio #1
ID                                       : 2
Format                                   : DTS
Format/Info                              : Digital Theater Systems
Mode                                     : 16
Format settings, Endianness              : Big
Codec ID                                 : A_DTS
Duration                                 : 1h 24mn
Bit rate mode                            : Constant
Bit rate                                 : 768 Kbps
Channel(s)                               : 6 channels
Channel positions                        : Front: L C R, Side: L R, LFE
Sampling rate                            : 48.0 KHz
Bit depth                                : 24 bits
Compression mode                         : Lossy
Stream size                              : 466 MiB (20%)
Language                                 : German
Default                                  : Yes
Forced                                   : No

Audio #2
ID                                       : 3
Format                                   : DTS
Format/Info                              : Digital Theater Systems
Mode                                     : 16
Format settings, Endianness              : Big
Codec ID                                 : A_DTS
Duration                                 : 1h 24mn
Bit rate mode                            : Constant
Bit rate                                 : 768 Kbps
Channel(s)                               : 6 channels
Channel positions                        : Front: L C R, Side: L R, LFE
Sampling rate                            : 48.0 KHz
Bit depth                                : 24 bits
Compression mode                         : Lossy
Stream size                              : 466 MiB (20%)
Language                                 : English
Default                                  : No
Forced                                   : No

Text
ID                                       : 4
Format                                   : VobSub
Muxing mode                              : zlib
Codec ID                                 : S_VOBSUB
Codec ID/Info                            : The same subtitle format used on DVDs
Language                                 : German
Default                                  : Yes
Forced                                   : Yes


Download:
Share Online Share OnlineShare OnlineShare Online
 

Kommentare