DNS SERVER AENDERNum der staatlichen Zensur zu umgehen. Sollten wir von eurem Provider geseprrt werden, nutzt den TOR BROWSER oder ändert euren DNS SERVER.

Filmwünsche können bei uns im Forum abgegeben werden

Wir Speichern Nicht




 
 
 
Top Releases
Batman.Ninja.2018.German.AC3...
Brain.on.Fire.2016.German.Du...
Brain.on.Fire.2016.German.Du...
The.Whiskey.Bandit.Allein.ge...
Loving.Vincent.2017.German.D...
Rise.of.the.Scythian.2018.Ge...
Der.geilste.Tag.2016.German....
Das.Leben.ist.ein.Fest.2017....
Central.Intelligence.EXTENDE...
Wind.River.2017.German.AC3.D...

Cinedubs
Ready.Player.One.2018.German...
Ready.Player.One.2018.German...
How.to.Party.with.Mom.2018.G...
How.to.Party.with.Mom.2018.G...
Ready.Player.One.German.DL.A...
Ready.Player.One.German.DL.A...
Rampage.2018.German.AC3D.DL....
Rampage.2018.German.AC3D.DL....
Tomb.Raider.2018.3D.HSBS.Ger...
Tomb.Raider.2018.3D.HOU.Germ...

Neuerscheinungen 2017-18
Gremlin.2017.German.1080p.HD...
Menschen.am.Fluss.The.River....
Wahrheit.oder.Pflicht.2018.G...
Die.gnadenlosen.Vier.Posse.f...
Die.Wall.Street.Verschwoerun...
Die.Wall.Street.Verschwoerun...
Die.Wall.Street.Verschwoerun...
The.Lodgers.2017.MULTI.COMPL...
Hilfe.ich.hab.meine.Eltern.g...
Hilfe.Ich.hab.meine.Eltern.g...

XXX
Fitting-Room.18.06.14.Melena...
PlumperPass.18.06.13.Curvy.Q...
Killergram.18.06.14.Masked.M...
CumPerfection.18.06.14.Melli...
DarkX.18.06.14.Gina.Valentin...
ExposedWhores.E208.Shavelle....
ExposedWhores.E207.Sheena.Ry...
Nubiles.18.06.14.Jia.Lissa.N...
Hustler.18.06.14.Kimber.Wood...
Bang.Glamkore.18.06.14.Aisli...
ExploitedCollegeGirls.18.06....
PetiteHDPorn.18.06.14.Molly....
MomXXX.18.06.14.Georgie.Lyal...
MyFriendsHotMom.18.06.14.Sar...
Anilos.18.06.14.Darla.Red.Li...
Nubiles.18.06.13.Sarah.Smith...
Its.OKay.Shes.My.Stepmother....
NubileFilms.18.06.13.Ember.S...
FamilyStrokes.18.06.14.Lily....
ExposedWhores.E159.Leanna.La...

3D
Tomb.Raider.2018.3D.COMPLETE...
Zombies.Ueberlebe.die.Untote...
Der.Dschungel.Der.Zauber.ein...
Penthouse.Presents.Sexy.Sing...
The.LEGO.Ninjago.Movie.3D.20...
Zombies.Ueberlebe.die.Untote...
Norwegen.3D.2013.GERMAN.DL.D...
Norwegen.3D.2013.GERMAN.DOKU...
Jumanji.Willkommen.im.Dschun...
Jumanji.Welcome.To.The.Jungl...
Abraham.Lincoln.Vampire.Hunt...
Norwegen.3D.2013.MULTi.COMPL...
Star.Wars.Episode.VIII.Die.l...
Star.Wars.Episode.VIII.Die.l...
Star.Wars.Episode.VIII.Die.l...

Old_Stuff
Weissensee.S03.2015.GERMAN.C...
Weissensee.S01+S02.2010.GERM...
Die.Unglaublichen.-.The.Incr...
Der.grosse.Trick.1978.German...
Sully.2016.MULTi.COMPLETE.BL...
Tremors.3.Die.neue.Brut.2001...
Die.Indianer.von.Cleveland.2...
Dealt.2017.1080p.AMZN.WEB-DL...
Dealt.2017.720p.AMZN.WEB-DL....
Roter.Staub.aka.The.Brave.On...
Roter.Staub.aka.The.Brave.On...
Magic.in.the.Moonlight.2014....
The.LEGO.Ninjago.Movie.2017....
Zeit.der.Zaertlichkeit.1983....
Zeit.der.Zaertlichkeit.1983....

Filme
Rampage.2009.German.DTSHD.DL...
Willard.1971.German.AC3.DL.1...
Blue.Valentine.German.DL.108...
Blue.in.the.Face.Alles.blaue...
The.Proposition.2005.German....
The.Flash.2014.S04.GERMAN.72...
Supergirl.S03.GERMAN.720p.HD...
Gotham.S04.GERMAN.720p.HDTV....
Scorpion.S04.GERMAN.DUBBED.D...
Boeing.Boeing.1965.German.AC...
Formel.1.Saison.2018.GERMAN....
Todfreunde.aka.Bad.Influence...
TinkerBell.und.die.Legende.v...
Dein.Schicksal.in.meiner.Han...
Dein.Schicksal.in.meiner.Han...
Entourage.2015.German.DL.108...
Die.Wilby-Verschwoerung.1975...
Die.Wilby-Verschwoerung.1975...
Die.Eiskoenigin.Voellig.unve...
Drag.Me.to.Hell.Unrated.Rema...
Evil.Dead.Die.Saat.Des.Boese...
Heute.bin.ich.Samba.2014.Ger...
Prinzessin.Mononoke.1997.Ger...
15.17.to.Paris.2018.German.D...

 
 
Westworld.S02.German.Dubbed.DL.720p.WEB.x264-ATAX
Jahr: 2018
Genre: Drama | Mystery | Sci-Fi
Sprache: Deutsch AC3 | Englisch AC3
Laufzeit: 1h je Folge
Bitrate: 3100 Kbps
Format: MKV
Größe: 1,9 GB je Folge
Release:

Beschreibung:

Der Freizeitpark „Westworld“ verspricht seinen Kunden unvergessliche Wildwest-Action. Hier kann jeder als Revolverheld fiese Schurken erschießen, gegen Indianer kämpfen oder Postkutschen überfallen. Vom Sheriff bis zur Saloon-Prostituierten ist das gesamte Park-Personal auf die Wünsche der Kunden programmiert – im wahrsten Sinne, denn es handelt sich um perfekt menschlich aussehende Roboter.

 

enthaltene Folgen:

Westworld.S02E01.German.Dubbed.DL.720p.WEB.h264.iNTERNAL-ATAX

Westworld.S02E02.German.Dubbed.DL.720p.WEB.h264-ATAX

Westworld.S02E03.German.Dubbed.DL.720p.WEB.h264-ATAX

Westworld.S02E04.German.Dubbed.DL.720p.WEB.h264-ATAX

Westworld.S02E05.German.Dubbed.DL.720p.WEB.h264-ATAX

Westworld.S02E06.German.Dubbed.DL.720p.WEB.h264-ATAX

Westworld.S02E07.German.Dubbed.DL.720p.WEB.h264-ATAX

Westworld.S02E08.German.Dubbed.DL.720p.WEB.h264-ATAX

Westworld.S02E09.German.Dubbed.DL.720p.WEB.h264-ATAX NEU



General
Complete name                            : Westworld.S02E01.German.Dubbed.DL.720p.WEB.h264.iNTERNAL-ATAX\atax-westworld.s02e01.int-720p.mkv
Format                                   : Matroska
Format version                           : Version 4 / Version 2
File size                                : 1.87 GiB
Duration                                 : 1h 6mn
Overall bit rate mode                    : Variable
Overall bit rate                         : 4 007 Kbps
Encoded date                             : UTC 2018-04-23 21:35:44
Writing application                      : mkvmerge v8.0.0 ('Til The Day That I Die') 64bit
Writing library                          : libebml v1.3.1 + libmatroska v1.4.2
DURATION                                 : 01:06:48.480000000
NUMBER_OF_FRAMES                         : 125265
NUMBER_OF_BYTES                          : 192407040
_STATISTICS_WRITING_APP                  : mkvmerge v8.0.0 ('Til The Day That I Die') 64bit
_STATISTICS_WRITING_DATE_UTC             : 2018-04-23 21:35:44
_STATISTICS_TAGS                         : BPS DURATION NUMBER_OF_FRAMES NUMBER_OF_BYTES

Video
ID                                       : 1
Format                                   : AVC
Format/Info                              : Advanced Video Codec
Format profile                           : High@L3.1
Format settings, CABAC                   : Yes
Format settings, ReFrames                : 5 frames
Codec ID                                 : V_MPEG4/ISO/AVC
Duration                                 : 1h 6mn
Bit rate mode                            : Variable
Bit rate                                 : 3 160 Kbps
Maximum bit rate                         : 4 500 Kbps
Width                                    : 1 280 pixels
Height                                   : 720 pixels
Display aspect ratio                     : 16:9
Frame rate mode                          : Constant
Frame rate                               : 25.000 fps
Original frame rate                      : 23.976 fps
Color space                              : YUV
Chroma subsampling                       : 4:2:0
Bit depth                                : 8 bits
Scan type                                : Progressive
Bits/(Pixel*Frame)                       : 0.137
Stream size                              : 1.47 GiB (79%)
Language                                 : English
Default                                  : Yes
Forced                                   : No
Color primaries                          : BT.709
Transfer characteristics                 : BT.709
Matrix coefficients                      : BT.709
DURATION                                 : 01:06:48.440000000
NUMBER_OF_FRAMES                         : 100211
NUMBER_OF_BYTES                          : 1622034359
_STATISTICS_WRITING_APP                  : mkvmerge v8.0.0 ('Til The Day That I Die') 64bit
_STATISTICS_WRITING_DATE_UTC             : 2018-04-23 21:35:44
_STATISTICS_TAGS                         : BPS DURATION NUMBER_OF_FRAMES NUMBER_OF_BYTES

Audio #1
ID                                       : 2
Format                                   : AC-3
Format/Info                              : Audio Coding 3
Mode extension                           : CM (complete main)
Format settings, Endianness              : Big
Codec ID                                 : A_AC3
Duration                                 : 1h 6mn
Bit rate mode                            : Constant
Bit rate                                 : 384 Kbps
Channel(s)                               : 6 channels
Channel positions                        : Front: L C R, Side: L R, LFE
Sampling rate                            : 48.0 KHz
Bit depth                                : 16 bits
Compression mode                         : Lossy
Stream size                              : 183 MiB (10%)
Language                                 : German
Default                                  : Yes
Forced                                   : Yes

Audio #2
ID                                       : 3
Format                                   : AC-3
Format/Info                              : Audio Coding 3
Mode extension                           : CM (complete main)
Format settings, Endianness              : Big
Codec ID                                 : A_AC3
Duration                                 : 1h 6mn
Bit rate mode                            : Constant
Bit rate                                 : 384 Kbps
Channel(s)                               : 6 channels
Channel positions                        : Front: L C R, Side: L R, LFE
Sampling rate                            : 48.0 KHz
Bit depth                                : 16 bits
Compression mode                         : Lossy
Stream size                              : 183 MiB (10%)
Language                                 : English
Default                                  : No
Forced                                   : No



Download:
Share-Online.biz Share-Online.bizShare-Online.bizShare-Online.biz | Rapidgator.net Rapidgator.netRapidgator.netRapidgator.net
 

Kommentare