DNS SERVER AENDERNum der staatlichen Zensur zu umgehen. Sollten wir von eurem Provider geseprrt werden, nutzt den TOR BROWSER oder ändert euren DNS SERVER.

Filmwünsche können bei uns im Forum abgegeben werden

Wir Speichern Nicht




 
 
 
Top Releases
Terminator.Genisys.Fancut.20...
Unsane.Ausgeliefert.2018.Ger...
Unsane.Ausgeliefert.2018.Ger...
Revenge.2017.German.1080p.Bl...
Revenge.2017.German.720p.Blu...
Revenge.2017.MULTi.COMPLETE....
Hagazussa.Der.Hexenfluch.201...
Ready.Player.One.2018.MULTi....
Moonwalkers.2015.German.AC3....
I.Tonya.2017.DUAL.COMPLETE.B...

Cinedubs
Deadpool.2.2018.Super.Duper....
Deadpool.2.2018.Super.Duper....
Die.Farbe.des.Horizonts.2018...
Die.Farbe.des.Horizonts.2018...
Catch.Me.2018.GERMAN.DL.AC3....
Catch.Me.2018.GERMAN.DL.AC3....
Deadpool.2.Super.Duper.Cut.2...
Deadpool.2.2018.German.AC3D....
Skyscraper.2018.German.AC3LD...
Skyscraper.2018.GERMAN.DL.AC...

Neuerscheinungen 2017-18
Criminal.Squad.THEATRICAL.20...
Criminal.Squad.THEATRICAL.20...
Criminal.Squad.THEATRICAL.20...
Criminal.Squad.THEATRICAL.20...
Action.Point.2018.German.AC3...
A.Thought.of.Ecstasy.2017.Ge...
A.Thought.of.Ecstasy.2017.Ge...
The.Package.2018.GERMAN.720p...
Norma.Rae.1979.MULTi.COMPLET...
Hagazussa.Der.Hexenfluch.201...

XXX
IKnowThatGirl.18.08.11.Maya....
CumEatingCuckOlds.18.08.10.L...
AssholeFever.18.08.11.Shona....
21EroticAnal.18.08.11.Nicole...
JapanHDV.18.08.11.Yuri.Sakur...
FakeHostel.18.08.11.Nesty.XX...
ATKGirlfriends.18.08.11.Athe...
AllOver30.18.08.11.Anna.Moor...
FTVGirls.18.08.11.Jody.Very....
FreakMobMedia.18.03.16.Dani....
BrazzersExxtra.18.08.11.Kiki...
CumEatingCuckOlds.18.07.27.M...
FakehubOriginals.18.08.11.Al...
Anilos.18.08.11.Amber.West.O...
FreakMobMedia.18.03.08.Marcy...
Hustler.18.08.11.Aurora.Wint...
JulesJordan.18.08.11.Zoe.Blo...
ClubSeventeen.18.08.11.Angel...
ImmoralLive.18.08.11.Cherry....
AuntJudys.18.08.10.Grace.Mas...

3D
Winter.Games.3D.2013.DUAL.CO...
Tomb.Raider.3D.2018.German.7...
Rampage.Big.Meets.Bigger.3D....
Rampage.Big.Meets.Bigger.3D....
Tomb.Raider.3D.2018.MULTi.CO...
Pacific.Rim.Uprising.3D.2018...
Ready.Player.One.3D.2018.Ger...
Rampage.-.Big.Meets.Bigger.2...
Ready.Player.One.2018.3D.HOU...
Ready.Player.One.2018.3D.HSB...
Ready.Player.One.3D.2018.MUL...
Black.Panther.3D.2018.MULTI....
Black.Panther.3D.HOU.2018.Ge...
Black.Panther.3D.HSBS.2018.G...
Best.of.3D.vol.04.-.06.GERMA...

Old_Stuff
Meine.liebe.Rabenmutter.germ...
Da.Vincis.Demons.S01.Complet...
Eragon.Das.Vermaechtnis.der....
Adele.und.das.Geheimnis.des....
Die.fabelhafte.Welt.der.Amel...
Haus.des.Geldes.S01.German.M...
How.I.Met.Your.Mother.S01.Ge...
The.Dark.Knight.Rises.2012.M...
Weissensee.S03.2015.GERMAN.C...
Weissensee.S01+S02.2010.GERM...
Die.Unglaublichen.-.The.Incr...
Der.grosse.Trick.1978.German...
Sully.2016.MULTi.COMPLETE.BL...
Tremors.3.Die.neue.Brut.2001...
Die.Indianer.von.Cleveland.2...

Filme
Predators.2010.German.DTS.DL...
Der.Einsatz.aka.The.Recruit....
Ring.2.2005.Unrated.German.A...
Avengers.3.Infinity.War.Germ...
Das.unsichtbare.Netz.1954.Ge...
Das.unsichtbare.Netz.1954.Ge...
To.Wong.Foo.thanks.for.Every...
To.Wong.Foo.thanks.for.Every...
The.New.Big.Boss.1997.German...
The.Nesting.Haus.des.Grauens...
Predator.2.1990.German.DTS.D...
Der.Retorten-Goliath.1975.Ge...
Der.Retorten-Goliath.1975.Ge...
Cocktail.fuer.eine.Leiche.19...
Peter.Hase.2018.German.DL.21...
Shooter.S03.GERMAN.DUBBED.DL...
Shooter.S03.GERMAN.DUBBED.DL...
Die.Simpsons.S29.GERMAN.DUBB...
Die.Simpsons.S29.GERMAN.DUBB...
MacGyver.S02.German.HDTV.108...
DCs.Legends.of.Tomorrow.S03....
Better.Call.Saul.S04.German....
Predator.1987.German.DL.2160...
Norma.Rae.1979.GERMAN.DL.DTS...

 
 
Westworld.S02.COMPLETE.German.Dubbed.DL.1080p.WEB.x264-ATAX
Jahr: 2018
Genre: Drama | Mystery | Sci-Fi
Sprache: Deutsch AC3 | Englisch AC3
Laufzeit: 1h je Folge
Bitrate: 10 Mbps
Format: MKV
Größe: 5 GB je Folge
Release:

Beschreibung:

Der Freizeitpark „Westworld“ verspricht seinen Kunden unvergessliche Wildwest-Action. Hier kann jeder als Revolverheld fiese Schurken erschießen, gegen Indianer kämpfen oder Postkutschen überfallen. Vom Sheriff bis zur Saloon-Prostituierten ist das gesamte Park-Personal auf die Wünsche der Kunden programmiert – im wahrsten Sinne, denn es handelt sich um perfekt menschlich aussehende Roboter.

 

Staffel komplett

Westworld.S02E10.German.Dubbed.DL.1080p.WEB.h264-ATAX NEU



General
Complete name                            : Westworld.S02E01.German.Dubbed.DL.1080p.WEB.h264.iNTERNAL-ATAX\atax-westworld.s02e01.int-1080p.mkv
Format                                   : Matroska
Format version                           : Version 4 / Version 2
File size                                : 5.33 GiB
Duration                                 : 1h 6mn
Overall bit rate mode                    : Variable
Overall bit rate                         : 11.4 Mbps
Encoded date                             : UTC 2018-04-23 21:33:55
Writing application                      : mkvmerge v8.0.0 ('Til The Day That I Die') 64bit
Writing library                          : libebml v1.3.1 + libmatroska v1.4.2
DURATION                                 : 01:06:48.448000000
NUMBER_OF_FRAMES                         : 125264
NUMBER_OF_BYTES                          : 192405504
_STATISTICS_WRITING_APP                  : mkvmerge v8.0.0 ('Til The Day That I Die') 64bit
_STATISTICS_WRITING_DATE_UTC             : 2018-04-23 21:33:55
_STATISTICS_TAGS                         : BPS DURATION NUMBER_OF_FRAMES NUMBER_OF_BYTES

Video
ID                                       : 1
Format                                   : AVC
Format/Info                              : Advanced Video Codec
Format profile                           : High@L4.0
Format settings, CABAC                   : Yes
Format settings, ReFrames                : 4 frames
Codec ID                                 : V_MPEG4/ISO/AVC
Duration                                 : 1h 6mn
Bit rate mode                            : Variable
Bit rate                                 : 10.4 Mbps
Maximum bit rate                         : 15.0 Mbps
Width                                    : 1 920 pixels
Height                                   : 1 080 pixels
Display aspect ratio                     : 16:9
Frame rate mode                          : Constant
Frame rate                               : 25.000 fps
Original frame rate                      : 23.976 fps
Color space                              : YUV
Chroma subsampling                       : 4:2:0
Bit depth                                : 8 bits
Scan type                                : Progressive
Bits/(Pixel*Frame)                       : 0.201
Stream size                              : 4.86 GiB (91%)
Language                                 : English
Default                                  : Yes
Forced                                   : Yes
Color primaries                          : BT.709
Transfer characteristics                 : BT.709
Matrix coefficients                      : BT.709
DURATION                                 : 01:06:48.440000000
NUMBER_OF_FRAMES                         : 100211
NUMBER_OF_BYTES                          : 5336343164
_STATISTICS_WRITING_APP                  : mkvmerge v8.0.0 ('Til The Day That I Die') 64bit
_STATISTICS_WRITING_DATE_UTC             : 2018-04-23 21:33:55
_STATISTICS_TAGS                         : BPS DURATION NUMBER_OF_FRAMES NUMBER_OF_BYTES

Audio #1
ID                                       : 2
Format                                   : AC-3
Format/Info                              : Audio Coding 3
Mode extension                           : CM (complete main)
Format settings, Endianness              : Big
Codec ID                                 : A_AC3
Duration                                 : 1h 6mn
Bit rate mode                            : Constant
Bit rate                                 : 384 Kbps
Channel(s)                               : 6 channels
Channel positions                        : Front: L C R, Side: L R, LFE
Sampling rate                            : 48.0 KHz
Bit depth                                : 16 bits
Compression mode                         : Lossy
Stream size                              : 183 MiB (3%)
Language                                 : German
Default                                  : Yes
Forced                                   : Yes

Audio #2
ID                                       : 3
Format                                   : AC-3
Format/Info                              : Audio Coding 3
Mode extension                           : CM (complete main)
Format settings, Endianness              : Big
Codec ID                                 : A_AC3
Duration                                 : 1h 6mn
Bit rate mode                            : Constant
Bit rate                                 : 384 Kbps
Channel(s)                               : 6 channels
Channel positions                        : Front: L C R, Side: L R, LFE
Sampling rate                            : 48.0 KHz
Bit depth                                : 16 bits
Compression mode                         : Lossy
Stream size                              : 183 MiB (3%)
Language                                 : English
Default                                  : No
Forced                                   : No



Download:
Share-Online.biz Share-Online.bizShare-Online.bizShare-Online.biz | Rapidgator.net Rapidgator.netRapidgator.netRapidgator.net
 

Kommentare

  1. Geschrieben am 8. May 2018, 19:50 Uhr von Ignaz · #

    1+2 giebt drei, die Episode hat die Falsche nummer

    / jetzt besser :)
  2. Geschrieben am 19. June 2018, 17:00 Uhr von HDA · #

    Moin, hat jemand für die ATAX passende OT Subs? Danke

  3. Geschrieben am 26. June 2018, 21:40 Uhr von tingltangl · #

    Ich bekomme bei E10 immer einen CRC Fehler beim entpacken…noch jemand?

    / dann repariere das mit der Raparaturfunktion von RAR. Ich habe die Dateien gestern heruntergeladen und es war alles in Ordnung.