DNS SERVER AENDERNum der staatlichen Zensur zu umgehen. Sollten wir von eurem Provider geseprrt werden, nutzt den TOR BROWSER oder ändert euren DNS SERVER.

Filmwünsche können bei uns im Forum abgegeben werden

Wir Speichern Nicht




 
 
 
Top Releases
Midnight.Sun.Alles.fuer.dich...
Familiye.2017.German.AC3.108...
Gringo.2018.German.DL.1080p....
Deadpool.2.Super.Duper.Cut.2...
Deadpool.2.Super.Duper.Cut....
Deadpool.2.Super.Duper.Cut.2...
Thelma.2017.German.AC3.DL.10...
Familiye.2017.German.1080p.B...
Familiye.2017.German.720p.Bl...
Midnight.Sun.Alles.fuer.dich...

Cinedubs
Breaking.In.2018.UNRATED.GER...
Breaking.In.2018.UNRATED.GER...
Breaking.In.2018.UNRATED.GER...
Die.Farbe.des.Horizonts.2018...
Die.Farbe.des.Horizonts.2018...
Catch.Me.2018.GERMAN.DL.AC3....
Catch.Me.2018.GERMAN.DL.AC3....
Skyscraper.2018.German.AC3LD...
Skyscraper.2018.GERMAN.DL.AC...
Der.Dolmetscher.German.AC3.7...

Neuerscheinungen 2017-18
Wilson.Der.Weltverbesserer.2...
Wilson.Der.Weltverbesserer.2...
Das.Zeitraetsel.2018.German....
Das.Zeitraetsel.2018.German....
Familiye.2017.GERMAN.COMPLET...
Lazer.Team.2015.DC.German.DL...
Lazer.Team.2015.DC.German.72...
Badlands.1973.MULTi.COMPLETE...
A.Thought.of.Ecstasy.2017.MU...
Criminal.Squad.THEATRICAL.20...

XXX
JaysPOV.18.08.13.Emily.Willi...
InnocentHigh.18.08.13.India....
JamesDeen.18.08.13.Iris.Rose...
KarupsHA.18.08.11.Naughty.Sl...
HookupHotshot.E154.Vanna.Bar...
HotLegsAndFeet.18.08.14.Arte...
ManuelFerrara.18.08.13.Gina....
MetArt.18.08.14.Nasita.Befor...
InTheCrack.E1438.Sabina.Roug...
KarupsPC.18.08.11.Aislin.Tur...
Hustler.18.08.14.Layla.Price...
KarupsHA.18.08.13.Ember.Snow...
GirlsRimming.18.08.11.Scyley...
HotGuysFuck.18.08.06.Diego.C...
HotGuysFuck.18.08.03.Dane.Du...
GrandMams.18.08.14.Cheatng.G...
HotGuysFuck.18.07.30.Lex.Web...
HollyRandall.18.08.14.Bailey...
MetArtX.18.08.14.Adel.C.Swee...
HotGuysFuck.18.08.10.Sean.Le...

3D
Avengers.Infinity.War.3D.201...
Rampage.Big.Meets.Bigger.3D....
Rampage.Big.Meets.Bigger.3D....
Rampage.Big.Meets.Bigger.3D....
Winter.Games.3D.2013.DUAL.CO...
Tomb.Raider.3D.2018.German.7...
Rampage.Big.Meets.Bigger.3D....
Rampage.Big.Meets.Bigger.3D....
Tomb.Raider.3D.2018.MULTi.CO...
Pacific.Rim.Uprising.3D.2018...
Ready.Player.One.3D.2018.Ger...
Rampage.-.Big.Meets.Bigger.2...
Ready.Player.One.2018.3D.HOU...
Ready.Player.One.2018.3D.HSB...
Ready.Player.One.3D.2018.MUL...

Old_Stuff
Meine.liebe.Rabenmutter.germ...
Da.Vincis.Demons.S01.Complet...
Eragon.Das.Vermaechtnis.der....
Adele.und.das.Geheimnis.des....
Die.fabelhafte.Welt.der.Amel...
Haus.des.Geldes.S01.German.M...
How.I.Met.Your.Mother.S01.Ge...
The.Dark.Knight.Rises.2012.M...
Weissensee.S03.2015.GERMAN.C...
Weissensee.S01+S02.2010.GERM...
Die.Unglaublichen.-.The.Incr...
Der.grosse.Trick.1978.German...
Sully.2016.MULTi.COMPLETE.BL...
Tremors.3.Die.neue.Brut.2001...
Die.Indianer.von.Cleveland.2...

Filme
Der.Mann.aus.San.Fernando.Ev...
Marvels.Agents.of.S.H.I.E.L....
Marvels.Agents.of.S.H.I.E.L....
The.Flash.2014.S04.GERMAN.10...
Supergirl.S03.GERMAN.1080p.H...
Gotham.S04.GERMAN.1080p.HDTV...
Deadpool.2.2018.The.Super.Du...
Mr.Destiny.1990.German.DL.AC...
Mr.Destiny.1990.German.DL.AC...
Wahrheit.oder.Pflicht.Truth....
Steppenwolf.1974.German.DL.1...
Thelma.2017.German.DL.DTS.72...
Thelma.2017.German.DL.DTS.10...
Familiye.2017.German.AC3.108...
Familiye.2017.German.AC3.720...
Gringo.2018.German.DTS.DL.72...
Gringo.2018.German.DTS.DL.10...
Veronika.beschliesst.zu.ster...
Dead.Presidents.UNRATED.1995...
Die.gute.Erde.1937.German.AC...
Steppenwolf.1974.OAR.German....
Death.Watch.Der.gekaufte.Tod...
Communion.-.Messe.des.Grauen...
Monte.Carlo.Rallye.1969.Germ...

 
 
Gotham.S04.GERMAN.720p.HDTV.x264-ACED
Jahr: 2017
Genre: Action | Krimi | Drama
Sprache: Deutsch AC3
Laufzeit: 41min je Folge
Bitrate: 2300 Kbps
Format: MKV
Größe: 750 MB je Folge
Release:

Beschreibung:

Die Serie „Gotham“ rückt Batmans spätere Heimatstadt ins Zentrum, bei deren Schöpfung seinerzeit deutliche Anleihen bei New York City genommen wurden. Hauptfigur der Serie ist James Gordon, der später als Polizei-Commissioner ein gutes Arbeitsverhältnis mit dem Fledermausmann hat und zudem der Vater von Batgirl aka Barbara Gordon ist.  In Gotham ist James Gordon noch ein einfacher Detective des Gotham City Police Department. Neben der Vorgeschichte von Gordon wird in der Serie auch die Entstehung der „Superschurken“ beleuchtet, mit denen sich dereinst Batman auseinandersetzen wird müssen. Auf dem Weg zum Polizeichef muss sich Gordon unter anderem mit Gangsterboss Fish Mooney und einem jungen Oswald Cobblepot, welcher später als der Pinguin bekannt sein wird, auseinandersetzen. Gordon ist in einem Vorort von Gotham groß geworden, von wo aus auch sein verstorbener Vater seiner Tätigkeit als Bezirksstaatsanwalt nachging. Früh lernte er das glamouröse Leben der aufregenden, stetig wachsenden Metropole kennen.  Zu Beginn der Serie ist Gordon gerade einmal zwei Wochen bei seinem Job als Detective. Verlobt mit der liebreizenden Barbara Keen Erin Richards, versucht der ambitionierte junge Polizist die Vision der Stadt aus seiner Kindheit so gut er kann zu realisieren. ​

 

enthaltene Folgen:

Gotham.S04E01.GERMAN.720p.HDTV.x264-ACED

Gotham.S04E02.GERMAN.720p.HDTV.x264-ACED

Gotham.S04E03.GERMAN.720p.HDTV.x264-ACED

Gotham.S04E04.GERMAN.720p.HDTV.x264-ACED

Gotham.S04E05.GERMAN.720p.HDTV.x264-ACED

Gotham.S04E06.GERMAN.720p.HDTV.x264-ACED

Gotham.S04E07.GERMAN.720p.HDTV.x264-ACED

Gotham.S04E08.GERMAN.720p.HDTV.x264-ACED

Gotham.S04E09.GERMAN.720p.HDTV.x264-ACED

Gotham.S04E10.GERMAN.720p.HDTV.x264-ACED

Gotham.S04E11.GERMAN.720p.HDTV.x264-ACED

Gotham.S04E12.GERMAN.720p.HDTV.x264-ACED

Gotham.S04E13.GERMAN.720p.HDTV.x264-ACED

Gotham.S04E14.GERMAN.720p.HDTV.x264-ACED

Gotham.S04E15.GERMAN.720p.HDTV.x264-ACED

Gotham.S04E16.GERMAN.720p.HDTV.x264.INTERNAL-ACED NEU



General
Complete name                            : Gotham.S04E01.GERMAN.720p.HDTV.x264-ACED\Gotham.S04E01.GERMAN.720p.HDTV.x264-ACED.mkv
Format                                   : Matroska
Format version                           : Version 4 / Version 2
File size                                : 758 MiB
Duration                                 : 41mn 14s
Overall bit rate                         : 2 570 Kbps
Encoded date                             : UTC 2018-05-04 15:06:13
Writing application                      : mkvmerge v22.0.0 ('At The End Of The World') 64-bit
Writing library                          : libebml v1.3.5 + libmatroska v1.4.8

Video
ID                                       : 1
Format                                   : AVC
Format/Info                              : Advanced Video Codec
Format profile                           : High@L4.1
Format settings, CABAC                   : Yes
Format settings, ReFrames                : 5 frames
Codec ID                                 : V_MPEG4/ISO/AVC
Duration                                 : 41mn 14s
Bit rate                                 : 2 327 Kbps
Width                                    : 1 280 pixels
Height                                   : 720 pixels
Display aspect ratio                     : 16:9
Frame rate mode                          : Constant
Frame rate                               : 25.000 fps
Color space                              : YUV
Chroma subsampling                       : 4:2:0
Bit depth                                : 8 bits
Scan type                                : Progressive
Bits/(Pixel*Frame)                       : 0.101
Stream size                              : 686 MiB (91%)
Writing library                          : x264 core 155 r2901 7d0ff22
Encoding settings                        : cabac=1 / ref=5 / deblock=1:-3:-3 / analyse=0x3:0x113 / me=umh / subme=9 / psy=1 / psy_rd=1.00:0.00 / mixed_ref=1 / me_range=16 / chroma_me=1 / trellis=2 / 8x8dct=1 / cqm=0 / deadzone=21,11 / fast_pskip=0 / chroma_qp_offset=-2 / threads=12 / lookahead_threads=1 / sliced_threads=0 / nr=0 / decimate=1 / interlaced=0 / bluray_compat=0 / constrained_intra=0 / bframes=3 / b_pyramid=2 / b_adapt=2 / b_bias=0 / direct=3 / weightb=1 / open_gop=0 / weightp=2 / keyint=250 / keyint_min=25 / scenecut=40 / intra_refresh=0 / rc_lookahead=50 / rc=crf / mbtree=1 / crf=18.0 / qcomp=0.60 / qpmin=0 / qpmax=69 / qpstep=4 / ip_ratio=1.40 / aq=1:1.00
Language                                 : English
Default                                  : Yes
Forced                                   : No

Audio
ID                                       : 2
Format                                   : AC-3
Format/Info                              : Audio Coding 3
Mode extension                           : CM (complete main)
Format settings, Endianness              : Big
Codec ID                                 : A_AC3
Duration                                 : 41mn 14s
Bit rate mode                            : Constant
Bit rate                                 : 192 Kbps
Channel(s)                               : 2 channels
Channel positions                        : Front: L R
Sampling rate                            : 48.0 KHz
Bit depth                                : 16 bits
Compression mode                         : Lossy
Stream size                              : 56.6 MiB (7%)
Language                                 : German
Default                                  : Yes
Forced                                   : No



Download:
Share-Online.biz Share-Online.bizShare-Online.bizShare-Online.biz | Rapidgator.net Rapidgator.netRapidgator.netRapidgator.net
 

Kommentare

  1. Geschrieben am 5. May 2018, 22:00 Uhr von chris D · #

    weiß man schon ob es das auch in Full HD und mit 6 Kanal Tonn geben wird?

    Besten Dank :-)

    / Kristallkugel ist leider kaputt... :(
  2. Geschrieben am 8. May 2018, 18:31 Uhr von MasterF · #

    Haha, Kristallkugel kaputt. Coole Antwort;-)
    Wollte die gleiche Frage stellen. Dann hoffe ich doch, dass Du schnell eine neue Kugel findest.
    Weiter so HDA

    / tja naja.. das ist so eine Sache mit den Kristallkugeln... Sehr schwer zu bekommen, wenn sie funktionieren soll. :)
  3. Geschrieben am 16. July 2018, 07:56 Uhr von Olivier-Sebastian · #

    Warum gibt es die Serie zumindestens nicht in 1080p in dem Hd Zeitalter??

    / vielleicht. weil sie nie in 1080 ausgestrahlt worden ist? HDTV.