DNS SERVER AENDERNum der staatlichen Zensur zu umgehen. Sollten wir von eurem Provider geseprrt werden, nutzt den TOR BROWSER oder ändert euren DNS SERVER.

Filmwünsche können bei uns im Forum abgegeben werden

Wir Speichern Nicht




 
 
 
Top Releases
Norman.2016.German.AC3D.DL.1...
Wo.steckt.Sidney.Hall.2017.G...
Chappie.2015.German.AC3.DL.1...
Solo.A.Star.Wars.Story.2018....
Der.Buchladen.der.Florance.G...
Jurassic.World.2.Das.gefalle...
Jurassic.World.2.Das.gefalle...
Racer.and.the.Jailbird.2017....
Racer.and.the.Jailbird.2017....
Racer.and.the.Jailbird.2017....

Cinedubs
First.Reformed.2017.German.D...
Mamma.Mia.2.Here.We.Go.Again...
First.Reformed.German.DL.AC3...
The.First.Purge.2018.German....
No.Way.Out.Gegen.die.Flammen...
First.Reformed.German.DL.AC3...
First.Reformed.German.DL.AC3...
The.First.Purge.German.DL.AC...
The.First.Purge.German.DL.AC...
Book.Club.Das.Beste.kommt.n...

Neuerscheinungen 2017-18
Mom.and.Dad.2017.German.AC3....
Jurassic.World.2.Das.gefalle...
Jurassic.World.2.Das.gefalle...
Zombie.Nightmare.1987.MULTi....
The.Boneyard.1991.MULTi.COMP...
Rueckenwind.von.vorn.2018.Ge...
Rueckenwind.von.vorn.2018.Ge...
The.Hurricane.Heist.2018.Ger...
Alte.Zoepfe.2018.German.DL.1...
Alte.Zoepfe.2018.German.DL.7...

XXX
PlumperPass.18.09.10.Dippd.N...
Nubiles.18.09.09.Zoe.Parker....
NuruMassage.18.09.07.Emma.Hi...
PornMegaLoad.18.09.06.Demmy....
PlayboyPlus.18.09.10.Sea.Ros...
PlayboyPlus.18.09.09.Mashup....
NothingButCurves.18.09.07.Ch...
PornMegaLoad.18.09.06.Mia.Ma...
NothingButCurves.18.09.03.Fr...
Nubiles.18.09.09.Angy.Kiss.P...
PornMegaLoad.18.09.08.Rachae...
PlumperPass.18.09.07.Kendra....
NothingButCurves.18.08.26.Ga...
NothingButCurves.18.08.30.Sa...
Orientation.3.XXX.1080p.WEBR...
PervMom.18.08.30.Lauren.Phil...
POVManiaXXX.18.08.31.Cheri.D...
PornMegaLoad.18.09.06.Berlyn...
Nubiles.18.09.07.Charlie.Red...
PornMegaLoad.18.09.06.Kiki.R...

3D
Solo.A.Star.Wars.Story.3D.20...
Solo.A.Star.Wars.Story.3D.20...
Die.Biene.Maja.2.Die.Honigsp...
Avengers.Infinity.War.3D.201...
Avengers.Infinity.War.3D.201...
Rampage.Big.Meets.Bigger.3D....
Rampage.Big.Meets.Bigger.3D....
Rampage.Big.Meets.Bigger.3D....
Winter.Games.3D.2013.DUAL.CO...
Tomb.Raider.3D.2018.German.7...
Rampage.Big.Meets.Bigger.3D....
Rampage.Big.Meets.Bigger.3D....
Tomb.Raider.3D.2018.MULTi.CO...
Pacific.Rim.Uprising.3D.2018...
Ready.Player.One.3D.2018.Ger...

Old_Stuff
Schimanski.-.Duisburg.Ruhror...
Akte.X.S02.German.DTS.DL.108...
How.I.Met.Your.Mother.S02.Ge...
Akte.X.S01.German.DTS.DL.108...
Den.Himmel.gibts.echt.DL.108...
Vikings.S02.German.DL.1080p....
Be.Kind.Rewind.Abgedreht.200...
Be.Kind.Rewind.Abgedreht.200...
Dracula.The.Dark.Lord.2012.G...
21.2008.German.DL.1080p.BluR...
Achtung.fertig.WK.Swissgerma...
The.Ouija.Exorcism.2015.MULT...
Meine.liebe.Rabenmutter.germ...
Da.Vincis.Demons.S01.Complet...
Eragon.Das.Vermaechtnis.der....

Filme
Loewengrube.1989.S01D01.GERM...
Die.Vermaehlung.ihrer.Eltern...
X.Men.2000.German.DL.2160p.U...
Perfect.World.aka.A.Perfect....
Perfect.World.1993.German.DL...
Stalag.17.1953.German.AC3D.7...
Animal.Kingdom.S03.GERMAN.72...
Supernatural.S13.DL.DD51.Dub...
Supernatural.S13.DL.DD51.Dub...
Longmire.S05.COMPLETE.GERMAN...
Snowfall.S02.German.DD51.Dub...
Into.the.Badlands.S03.German...
Into.the.Badlands.S03.German...
Animal.Kingdom.S03.GERMAN.DD...
Die.Nadel.1981.German.AC3.DL...
Saw.III.Directors.Cut.2006.G...
Meine.teuflischen.Nachbarn.1...
Gorillas.im.Nebel.1988.Germa...
Paparazzi.2004.German.AC3D.D...
Shaolin.Kickers.aka.Shaolin....
Three.Burials.Die.drei.Begra...
Moulin.Rouge.2001.German.DL....
Jurassic.World.2.Das.gefalle...
Saw.I.Directors.Cut.2004.Ger...

 
 
Silicon.Valley.S05.COMPLETE.GERMAN.720p.HDTV.x264-ACED
Jahr: 2018
Genre: Komödie
Sprache: Deutsch AC3
Laufzeit: 28min je Folge
Bitrate: 2100 Kbps
Format: MKV
Größe: 500 MB je Folge
Release:

Beschreibung:

In der HBO-Serie „Silicon Valley“ dreht sich alles um den bekannten Standort der IT-, High Tech- und Startup-Industrie in den USA, wo Innovation und Erfindungsreichtum an der Tagesordnung stehen. Jedoch treffen im südlichen Teil der San Franciscos Bay Area auch die skurrilsten Charaktere aufeinander. Silicon Valley ist nicht nur ein Ort voller Denker und eifriger Entwickler, es ist auch ein Abbild der hochtechnologisierten Welt, in der eigentümliche Personen miteinander interagieren müssen, um vielleicht das neueste Top-Projekt ausarbeiten zu können. „Silicon Valley“ wandelt dabei an der Grenzen zur Gesellschafts- und Kultursatire, und schlägt dabei subtil auch durchaus kritische Töne an.

 

enthaltene Folgen (Staffel komplett):

Silicon.Valley.S05E01.GERMAN.720p.HDTV.x264-ACED

Silicon.Valley.S05E02.GERMAN.720p.HDTV.x264-ACED

Silicon.Valley.S05E03.GERMAN.720p.HDTV.x264-ACED

Silicon.Valley.S05E04.GERMAN.720p.HDTV.x264-ACED

Silicon.Valley.S05E05.GERMAN.720p.HDTV.x264-ACED

Silicon.Valley.S05E06.GERMAN.720p.HDTV.x264-ACED

Silicon.Valley.S05E07.GERMAN.720p.HDTV.x264-ACED

Silicon.Valley.S05E08.GERMAN.720p.HDTV.x264-ACED NEU

 



General
Complete name                            : Silicon.Valley.S05E01.GERMAN.720p.HDTV.x264-ACED\Silicon.Valley.S05E01.GERMAN.720p.HDTV.x264-ACED.mkv
Format                                   : Matroska
Format version                           : Version 4 / Version 2
File size                                : 514 MiB
Duration                                 : 28mn 20s
Overall bit rate                         : 2 535 Kbps
Encoded date                             : UTC 2018-05-08 21:09:23
Writing application                      : mkvmerge v20.0.0 ('I Am The Sun') 64-bit
Writing library                          : Lavf57.83.100

Video
ID                                       : 1
Format                                   : AVC
Format/Info                              : Advanced Video Codec
Format profile                           : High@L4.1
Format settings, CABAC                   : Yes
Format settings, ReFrames                : 5 frames
Codec ID                                 : V_MPEG4/ISO/AVC
Duration                                 : 28mn 20s
Bit rate                                 : 2 101 Kbps
Width                                    : 1 280 pixels
Height                                   : 720 pixels
Display aspect ratio                     : 16:9
Frame rate mode                          : Constant
Frame rate                               : 25.000 fps
Color space                              : YUV
Chroma subsampling                       : 4:2:0
Bit depth                                : 8 bits
Scan type                                : Progressive
Bits/(Pixel*Frame)                       : 0.091
Stream size                              : 426 MiB (83%)
Writing library                          : x264 core 155 r2901 7d0ff22
Encoding settings                        : cabac=1 / ref=5 / deblock=1:-3:-3 / analyse=0x3:0x113 / me=umh / subme=9 / psy=1 / psy_rd=1.00:0.00 / mixed_ref=1 / me_range=16 / chroma_me=1 / trellis=2 / 8x8dct=1 / cqm=0 / deadzone=21,11 / fast_pskip=0 / chroma_qp_offset=-2 / threads=12 / lookahead_threads=1 / sliced_threads=0 / nr=0 / decimate=1 / interlaced=0 / bluray_compat=0 / constrained_intra=0 / bframes=3 / b_pyramid=2 / b_adapt=1 / b_bias=0 / direct=3 / weightb=1 / open_gop=0 / weightp=2 / keyint=200 / keyint_min=20 / scenecut=40 / intra_refresh=0 / rc_lookahead=50 / rc=crf / mbtree=1 / crf=19.0 / qcomp=0.60 / qpmin=0 / qpmax=69 / qpstep=4 / ip_ratio=1.40 / aq=1:1.00
Default                                  : Yes
Forced                                   : No
DURATION                                 : 00:28:20.872000000

Audio
ID                                       : 2
Format                                   : AC-3
Format/Info                              : Audio Coding 3
Mode extension                           : CM (complete main)
Format settings, Endianness              : Big
Codec ID                                 : A_AC3
Duration                                 : 28mn 20s
Bit rate mode                            : Constant
Bit rate                                 : 384 Kbps
Channel(s)                               : 6 channels
Channel positions                        : Front: L C R, Side: L R, LFE
Sampling rate                            : 48.0 KHz
Bit depth                                : 16 bits
Compression mode                         : Lossy
Delay relative to video                  : -952ms
Stream size                              : 77.9 MiB (15%)
Language                                 : German
Default                                  : Yes
Forced                                   : No
DURATION                                 : 00:28:20.800000000



Download:
Share-Online.biz Share-Online.bizShare-Online.bizShare-Online.biz | Rapidgator.net Rapidgator.netRapidgator.netRapidgator.net
 

Kommentare

  1. Geschrieben am 19. June 2018, 08:13 Uhr von Peet · #

    Also der Ton von Folge 6 ist unterirdisch. Das geht leider gar nicht

    / was auch immer das bedeuten mag.