DNS SERVER AENDERNum der staatlichen Zensur zu umgehen. Sollten wir von eurem Provider geseprrt werden, nutzt den TOR BROWSER oder ändert euren DNS SERVER.

Filmwünsche können bei uns im Forum abgegeben werden

Wir Speichern Nicht




 
 
 
Top Releases
The.Death.of.Stalin.2017.Ger...
Revenge.2017.German.AC3.DL.1...
Avengers.Infinity.War.2018.G...
Avengers.Infinity.War.2018.G...
Avengers.Infinity.War.2018.G...
Avengers.Infinity.War.2018.M...
I.Tonya.2017.German.AC3.DL.1...
Terminator.Genisys.Fancut.20...
Unsane.Ausgeliefert.2018.Ger...
Unsane.Ausgeliefert.2018.Ger...

Cinedubs
Deadpool.2.2018.Super.Duper....
Deadpool.2.2018.Super.Duper....
Die.Farbe.des.Horizonts.2018...
Die.Farbe.des.Horizonts.2018...
Catch.Me.2018.GERMAN.DL.AC3....
Catch.Me.2018.GERMAN.DL.AC3....
Deadpool.2.Super.Duper.Cut.2...
Deadpool.2.2018.German.AC3D....
Skyscraper.2018.German.AC3LD...
Skyscraper.2018.GERMAN.DL.AC...

Neuerscheinungen 2017-18
A.Thought.of.Ecstasy.2017.MU...
Criminal.Squad.THEATRICAL.20...
Criminal.Squad.THEATRICAL.20...
Criminal.Squad.THEATRICAL.20...
Criminal.Squad.THEATRICAL.20...
Action.Point.2018.German.AC3...
A.Thought.of.Ecstasy.2017.Ge...
A.Thought.of.Ecstasy.2017.Ge...
The.Package.2018.GERMAN.720p...
Norma.Rae.1979.MULTi.COMPLET...

XXX
MyLifeInMiami.18.08.07.Abbi....
MyFriendsHotMom.18.08.11.Tex...
ATKGirlfriends.18.08.11.Jade...
NannySpy.18.08.11.Bailey.Bro...
PlayboyPlus.18.08.12.Mashup....
Philavise.18.06.16.Miranda.M...
ReadyOrNotHereICum.18.08.11....
MomIsHorny.18.08.11.Alura.Je...
MommysGirl.18.08.11.Kristen....
PornMegaLoad.18.08.10.Alexya...
Nubiles.18.08.11.Jennifer.Li...
RealWifeStories.18.08.11.Lel...
LesbianX.18.08.11.Zoey.Monro...
WankItNow.17.09.05.Ashley.Ri...
SheWillCheat.18.08.09.India....
WankItNow.17.09.06.Tindra.Fr...
WcpClub.18.08.03.Bugatti.Bub...
WankItNow.17.09.04.Georgie.N...
Philavise.18.06.01.Gracie.Ma...
SapphicErotica.18.08.11.Lady...

3D
Rampage.Big.Meets.Bigger.3D....
Rampage.Big.Meets.Bigger.3D....
Winter.Games.3D.2013.DUAL.CO...
Tomb.Raider.3D.2018.German.7...
Rampage.Big.Meets.Bigger.3D....
Rampage.Big.Meets.Bigger.3D....
Tomb.Raider.3D.2018.MULTi.CO...
Pacific.Rim.Uprising.3D.2018...
Ready.Player.One.3D.2018.Ger...
Rampage.-.Big.Meets.Bigger.2...
Ready.Player.One.2018.3D.HOU...
Ready.Player.One.2018.3D.HSB...
Ready.Player.One.3D.2018.MUL...
Black.Panther.3D.2018.MULTI....
Black.Panther.3D.HOU.2018.Ge...

Old_Stuff
Meine.liebe.Rabenmutter.germ...
Da.Vincis.Demons.S01.Complet...
Eragon.Das.Vermaechtnis.der....
Adele.und.das.Geheimnis.des....
Die.fabelhafte.Welt.der.Amel...
Haus.des.Geldes.S01.German.M...
How.I.Met.Your.Mother.S01.Ge...
The.Dark.Knight.Rises.2012.M...
Weissensee.S03.2015.GERMAN.C...
Weissensee.S01+S02.2010.GERM...
Die.Unglaublichen.-.The.Incr...
Der.grosse.Trick.1978.German...
Sully.2016.MULTi.COMPLETE.BL...
Tremors.3.Die.neue.Brut.2001...
Die.Indianer.von.Cleveland.2...

Filme
20.Feet.from.Stardom.2013.DO...
A.Thought.of.Ecstasy.2017.Ge...
Push.2009.German.DL.1080p.Bl...
Perfect.Sense.German.DL.1080...
Der.Teufel.ist.eine.Frau.193...
Mothers.Day.Mutter.ist.wiede...
A.Quiet.Place.2018.German.DL...
Prinz.Eisenherz.1954.German....
Phantom.Kommando.1985.German...
Sein.Freund.Jello.1957.Germa...
Sein.Freund.Jello.1957.Germa...
Was.gibts.Neues.Pussy.1965.G...
Aktion.Mutante.1993.German.A...
Brennpunkt.Brooklyn.aka.Fren...
Was.gibts.Neues.Pussy.1965.G...
The.Departed.Open.Matte.2006...
Scouts.vs.Zombies.Handbuch.z...
Das.toedliche.Dreieck.Hanove...
The.Last.Man.On.Earth.S04.Ge...
The.Last.Man.On.Earth.S04.Ge...
Missions.S01.GERMAN.DUBBED.7...
Arrow.S06.GERMAN.DL.1080p.HD...
Arrow.S06.GERMAN.DL.720p.HDT...
Predators.2010.German.DTS.DL...

 
 
Feinde.Hostiles.German.DL.AC3.Dubbed.720p.BluRay.x264-PsO
Jahr: 2017
Genre: Drama, Western
Sprache: Deutsch AC3 | Englisch DTS
Laufzeit: 2h 14mn
Bitrate: 7 210 Kbps
Format: MKV
Größe: 6.76 GiB
Release:

Beschreibung:

New Mexico, 1892: Der verdiente Offizier Joseph Blocker erhält den Auftrag, den kranken Cheyenne-Häuptling Yellow Hawk, der die vergangenen sieben Jahre im Gefängnis verbrachte, in dessen Stammesland nach Montana zu begleiten. Der letzte Wunsch des als unerbittlich bekannten Indianers ist es, zu Hause zu sterben. Blocker und Yellow Hawk haben eine gemeinsame Vergangenheit, weswegen Blocker den Auftrag nur äußerst widerwillig annimmt. Gemeinsam mit einigen Soldaten und der Familie des Häuptlings bricht die Truppe auf. Unterwegs stoßen sie auf die junge Witwe Rosalie Quaid, deren gesamte Familie kaltblütig von Komantschen umgebracht wurde. Die traumatisierte Frau schließt sich ihnen an und die Gruppe setzt ihren gefährlichen Weg quer durch das unwegsame Land und eine extrem feindselige Umgebung fort. Schon bald wird klar, dass sie nur als Gemeinschaft im Kampf ums Überleben eine Chance haben…



Complete name                            : pso-hostiles_bd.720p.mkv
Format                                   : Matroska
Format version                           : Version 4 / Version 2
File size                                : 6.76 GiB
Duration                                 : 2h 14mn
Overall bit rate                         : 7 210 Kbps
Encoded date                             : UTC 2018-05-10 22:39:38
Writing application                      : mkvmerge v8.0.0 ('Til The Day That I Die') 64bit
Writing library                          : libebml v1.3.1 + libmatroska v1.4.2
DURATION                                 : 01:37:14.870000000
NUMBER_OF_FRAMES                         : 105
NUMBER_OF_BYTES                          : 2766
_STATISTICS_WRITING_APP                  : mkvmerge v8.0.0 ('Til The Day That I Die') 64bit
_STATISTICS_WRITING_DATE_UTC             : 2018-05-10 22:39:38
_STATISTICS_TAGS                         : BPS DURATION NUMBER_OF_FRAMES NUMBER_OF_BYTES

Video
ID                                       : 1
Format                                   : AVC
Format/Info                              : Advanced Video Codec
Format profile                           : High@L4.1
Format settings, CABAC                   : Yes
Format settings, ReFrames                : 5 frames
Codec ID                                 : V_MPEG4/ISO/AVC
Duration                                 : 2h 14mn
Bit rate                                 : 5 481 Kbps
Width                                    : 1 280 pixels
Height                                   : 536 pixels
Display aspect ratio                     : 2.40:1
Frame rate mode                          : Constant
Frame rate                               : 23.976 fps
Color space                              : YUV
Chroma subsampling                       : 4:2:0
Bit depth                                : 8 bits
Scan type                                : Progressive
Bits/(Pixel*Frame)                       : 0.333
Stream size                              : 5.00 GiB (74%)
Writing library                          : x264 core 155 r2901 7d0ff22
Encoding settings                        : cabac=1 / ref=5 / deblock=1:0:0 / analyse=0x3:0x133 / me=umh / subme=7 / psy=1 / psy_rd=1.00:0.00 / mixed_ref=1 / me_range=16 / chroma_me=1 / trellis=1 / 8x8dct=1 / cqm=0 / deadzone=21,11 / fast_pskip=0 / chroma_qp_offset=-2 / threads=17 / lookahead_threads=2 / sliced_threads=0 / nr=0 / decimate=1 / interlaced=0 / bluray_compat=0 / constrained_intra=0 / bframes=3 / b_pyramid=2 / b_adapt=1 / b_bias=0 / direct=1 / weightb=1 / open_gop=0 / weightp=2 / keyint=250 / keyint_min=23 / scenecut=40 / intra_refresh=0 / rc_lookahead=40 / rc=2pass / mbtree=1 / bitrate=5481 / ratetol=1.0 / qcomp=0.60 / qpmin=0 / qpmax=69 / qpstep=4 / cplxblur=20.0 / qblur=0.5 / ip_ratio=1.40 / aq=1:1.00
Language                                 : English
Default                                  : Yes
Forced                                   : No
DURATION                                 : 02:14:18.105000000
NUMBER_OF_FRAMES                         : 193201
NUMBER_OF_BYTES                          : 5514482042
_STATISTICS_WRITING_APP                  : mkvmerge v8.0.0 ('Til The Day That I Die') 64bit
_STATISTICS_WRITING_DATE_UTC             : 2018-05-10 22:39:38
_STATISTICS_TAGS                         : BPS DURATION NUMBER_OF_FRAMES NUMBER_OF_BYTES

Audio #1
ID                                       : 2
Format                                   : AC-3
Format/Info                              : Audio Coding 3
Mode extension                           : CM (complete main)
Format settings, Endianness              : Big
Codec ID                                 : A_AC3
Duration                                 : 2h 14mn
Bit rate mode                            : Constant
Bit rate                                 : 224 Kbps
Channel(s)                               : 2 channels
Channel positions                        : Front: L R
Sampling rate                            : 48.0 KHz
Bit depth                                : 16 bits
Compression mode                         : Lossy
Stream size                              : 215 MiB (3%)
Language                                 : German
Default                                  : Yes
Forced                                   : Yes

Audio #2
ID                                       : 3
Format                                   : DTS
Format/Info                              : Digital Theater Systems
Mode                                     : 16
Format settings, Endianness              : Big
Codec ID                                 : A_DTS
Duration                                 : 2h 14mn
Bit rate mode                            : Constant
Bit rate                                 : 1 509 Kbps
Channel(s)                               : 6 channels
Channel positions                        : Front: L C R, Side: L R, LFE
Sampling rate                            : 48.0 KHz
Bit depth                                : 24 bits
Compression mode                         : Lossy
Stream size                              : 1.42 GiB (21%)
Language                                 : English
Default                                  : No
Forced                                   : No

Text
ID                                       : 4
Format                                   : UTF-8
Codec ID                                 : S_TEXT/UTF8
Codec ID/Info                            : UTF-8 Plain Text
Language                                 : German
Default                                  : Yes
Forced                                   : Yes


Download:
Share Online Share OnlineShare OnlineShare Online
 

Kommentare