DNS SERVER AENDERNum der staatlichen Zensur zu umgehen. Sollten wir von eurem Provider geseprrt werden, nutzt den TOR BROWSER oder ändert euren DNS SERVER.

Filmwünsche können bei uns im Forum abgegeben werden

Wir Speichern Nicht




 
 
 
Top Releases
Thelma.2017.German.AC3.DL.10...
Familiye.2017.German.1080p.B...
Familiye.2017.German.720p.Bl...
Midnight.Sun.Alles.fuer.dich...
Midnight.Sun.Alles.fuer.dich...
To.All.the.Boys.Ive.Loved.Be...
To.All.the.Boys.Ive.Loved.Be...
Nur.Gott.kann.mich.richten.2...
Nur.Gott.kann.mich.richten.2...
The.Death.of.Superman.2018.G...

Cinedubs
Breaking.In.2018.UNRATED.GER...
Breaking.In.2018.UNRATED.GER...
Breaking.In.2018.UNRATED.GER...
Deadpool.2.2018.Super.Duper....
Deadpool.2.2018.Super.Duper....
Die.Farbe.des.Horizonts.2018...
Die.Farbe.des.Horizonts.2018...
Catch.Me.2018.GERMAN.DL.AC3....
Catch.Me.2018.GERMAN.DL.AC3....
Deadpool.2.Super.Duper.Cut.2...

Neuerscheinungen 2017-18
Lazer.Team.2015.DC.German.DL...
Lazer.Team.2015.DC.German.72...
Badlands.1973.MULTi.COMPLETE...
A.Thought.of.Ecstasy.2017.MU...
Criminal.Squad.THEATRICAL.20...
Criminal.Squad.THEATRICAL.20...
Criminal.Squad.THEATRICAL.20...
Criminal.Squad.THEATRICAL.20...
Action.Point.2018.German.AC3...
A.Thought.of.Ecstasy.2017.Ge...

XXX
ClubSeventeen.18.08.13.Ashle...
AssParade.18.08.13.Julianna....
Babes.18.08.14.Elena.Koshka....
Beauty-Angels.18.08.14.Foxxi...
Analized.18.08.13.Liv.Revamp...
AllOver30.18.08.14.Elegant.E...
Anilos.18.08.14.Tasha.Grant....
BlackPayBack.E09.Nadia.White...
Bang.RealMILFs.18.08.14.Blat...
BCM.18.08.13.Jennifer.White....
AnalTeenAngels.18.08.14.Lore...
BreakingAsses.18.08.14.Mira....
Cosmid.18.08.08.Karly.Peters...
Cosmid.18.08.10.Jameika.Turn...
BlacksOnBlondes.18.08.14.Can...
Blacked.18.08.13.Marley.Brin...
AllHerLuv.18.06.06.Ivy.Wolfe...
CherryPimps.18.08.13.Aiden.A...
BoxTruckSex.18.08.13.Naomi.B...
BruceAndMorgan.18.08.10.Sexy...

3D
Avengers.Infinity.War.3D.201...
Rampage.Big.Meets.Bigger.3D....
Rampage.Big.Meets.Bigger.3D....
Rampage.Big.Meets.Bigger.3D....
Winter.Games.3D.2013.DUAL.CO...
Tomb.Raider.3D.2018.German.7...
Rampage.Big.Meets.Bigger.3D....
Rampage.Big.Meets.Bigger.3D....
Tomb.Raider.3D.2018.MULTi.CO...
Pacific.Rim.Uprising.3D.2018...
Ready.Player.One.3D.2018.Ger...
Rampage.-.Big.Meets.Bigger.2...
Ready.Player.One.2018.3D.HOU...
Ready.Player.One.2018.3D.HSB...
Ready.Player.One.3D.2018.MUL...

Old_Stuff
Meine.liebe.Rabenmutter.germ...
Da.Vincis.Demons.S01.Complet...
Eragon.Das.Vermaechtnis.der....
Adele.und.das.Geheimnis.des....
Die.fabelhafte.Welt.der.Amel...
Haus.des.Geldes.S01.German.M...
How.I.Met.Your.Mother.S01.Ge...
The.Dark.Knight.Rises.2012.M...
Weissensee.S03.2015.GERMAN.C...
Weissensee.S01+S02.2010.GERM...
Die.Unglaublichen.-.The.Incr...
Der.grosse.Trick.1978.German...
Sully.2016.MULTi.COMPLETE.BL...
Tremors.3.Die.neue.Brut.2001...
Die.Indianer.von.Cleveland.2...

Filme
The.Flash.2014.S04.GERMAN.72...
Supergirl.S03.GERMAN.720p.HD...
Gotham.S04.GERMAN.720p.HDTV....
The.Americans.2013.S05.GERMA...
Rampage.Capital.Punishment.2...
Rampage.Black.Edition.Uncut....
Rampage.President.Down.2016....
Von.Ryans.Express.1965.Germa...
Prometheus.Open.Matte.2012.G...
The.Marine.2.2009.German.AC3...
Spider-Man.2.1.Extended.2004...
Verfluchtes.Amsterdam.1988.G...
Vergessene.Welt.Jurassic.Par...
Verhandlungssache.1998.Germa...
Der.heilige.Krieg.2011.COMPL...
Komplizen.des.Boesen.2018.CO...
Exorcist.Der.gefallene.Engel...
Fighter.Gang.UNCUT.1981.Germ...
Partymonster.Kratzen.an.der....
Partymonster.Kratzen.an.der....
H.P.Lovecrafts.Dagon.2001.UN...
Ho.Die.Nr.1.bin.ich.1968.Ger...
Mama.Mia.-.Nur.keine.Panik.1...
Ip.Man.2008.German.DTS.1080p...

 
 
Downsizing.2017.German.AC3.DL.1080p.BluRay.x265-FuN
Jahr: 2017
Genre: Komödie | Drama | Sci-Fi
Sprache: Deutsch AC3 | Englisch AC3
Laufzeit: 2h 15mn
Bitrate: 2 332 Kbps
Format: MKV
Größe: 2.20 GiB
Release:

Beschreibung:

Die Ressourcen der Erde neigen sich dem Ende zu und der Planet platzt aus allen Nähten. Um das Problem der Überbevölkerung zu lösen, haben norwegische Wissenschaftler eine Methode entwickelt, mit der sie Menschen schrumpfen und somit ihre Bedürfnisse und ihren Konsum enorm verringern können. Ein 12 Zentimeter kleiner Mensch verbraucht schließlich weniger Wasser, Luft und Nahrung als ein großer. In der Hoffnung auf ein glücklicheres und finanziell abgesichertes Leben in einer besseren Welt, entscheiden sich Durchschnittsbürger Paul Safranek und seine Frau Audrey ihr stressiges Leben in Omaha hinter sich zulassen und ihr großes Glück in einer neuen „geschrumpften“ Gemeinde zu suchen. Eine Entscheidung, die ein lebensveränderndes Abenteuer bereithält…




Format                                   : Matroska
Format version                           : Version 4 / Version 2
File size                                : 2.20 GiB
Duration                                 : 2h 15mn
Overall bit rate                         : 2 332 Kbps
Encoded date                             : UTC 2018-04-16T02:25:50Z
Writing application                      : HandBrake 1.0.7 2017040900
Writing library                          : Lavf57.7.2

Video
ID                                       : 1
Format                                   : HEVC
Format/Info                              : High Efficiency Video Coding
Format profile                           : Main@L4.0
Codec ID                                 : V_MPEGH/ISO/HEVC
Duration                                 : 2h 15mn
Bit rate                                 : 1 517 Kbps
Width                                    : 1 920 pixels
Height                                   : 804 pixels
Display aspect ratio                     : 2.40:1
Frame rate mode                          : Constant
Frame rate                               : 23.976 fps
Color space                              : YUV
Chroma subsampling                       : 4:2:0
Bit depth                                : 8 bits
Bits/(Pixel*Frame)                       : 0.041
Stream size                              : 1.43 GiB (65%)
Writing library                          : x265 2.1:[Windows][GCC 5.3.1][64 bit] 8bit
Encoding settings                        : wpp / ctu=64 / min-cu-size=8 / max-tu-size=32 / tu-intra-depth=1 / tu-inter-depth=1 / me=1 / subme=2 / merange=57 / no-rect / no-amp / max-merge=2 / temporal-mvp / no-early-skip / rskip / rdpenalty=0 / no-tskip / no-tskip-fast / no-strong-intra-smoothing / no-lossless / no-cu-lossless / no-constrained-intra / no-fast-intra / open-gop / no-temporal-layers / interlace=0 / keyint=240 / min-keyint=24 / scenecut=40 / rc-lookahead=20 / lookahead-slices=5 / bframes=4 / bframe-bias=0 / b-adapt=2 / ref=3 / limit-refs=3 / no-limit-modes / weightp / no-weightb / aq-mode=1 / qg-size=32 / aq-strength=1.00 / cbqpoffs=0 / crqpoffs=0 / rd=3 / psy-rd=2.00 / rdoq-level=0 / psy-rdoq=0.00 / log2-max-poc-lsb=8 / no-rd-refine / signhide / deblock=0:0 / no-sao / no-sao-non-deblock / b-pyramid / cutree / no-intra-refresh / rc=crf / crf=23.0 / qcomp=0.60 / qpmin=0 / qpmax=69 / qpstep=4 / ipratio=1.40 / pbratio=1.30
Default                                  : Yes
Forced                                   : No

Audio #1
ID                                       : 2
Format                                   : AC-3
Format/Info                              : Audio Coding 3
Mode extension                           : CM (complete main)
Format settings, Endianness              : Big
Codec ID                                 : A_AC3
Duration                                 : 2h 15mn
Bit rate mode                            : Constant
Bit rate                                 : 384 Kbps
Channel(s)                               : 6 channels
Channel positions                        : Front: L C R, Side: L R, LFE
Sampling rate                            : 48.0 KHz
Bit depth                                : 16 bits
Compression mode                         : Lossy
Delay relative to video                  : -5ms
Stream size                              : 372 MiB (16%)
Title                                    : Surround
Language                                 : German
Default                                  : Yes
Forced                                   : No

Audio #2
ID                                       : 3
Format                                   : AC-3
Format/Info                              : Audio Coding 3
Mode extension                           : CM (complete main)
Format settings, Endianness              : Big
Codec ID                                 : A_AC3
Duration                                 : 2h 15mn
Bit rate mode                            : Constant
Bit rate                                 : 384 Kbps
Channel(s)                               : 6 channels
Channel positions                        : Front: L C R, Side: L R, LFE
Sampling rate                            : 48.0 KHz
Bit depth                                : 16 bits
Compression mode                         : Lossy
Delay relative to video                  : -5ms
Stream size                              : 372 MiB (16%)
Title                                    : Surround
Default                                  : No
Forced                                   : No

Text #1
ID                                       : 4
Format                                   : VobSub
Codec ID                                 : S_VOBSUB
Codec ID/Info                            : The same subtitle format used on DVDs
Language                                 : German
Default                                  : Yes
Forced                                   : Yes

Text #2
ID                                       : 5
Format                                   : VobSub
Codec ID                                 : S_VOBSUB
Codec ID/Info                            : The same subtitle format used on DVDs
Language                                 : German
Default                                  : No
Forced                                   : No

Text #3
ID                                       : 6
Format                                   : VobSub
Codec ID                                 : S_VOBSUB
Codec ID/Info                            : The same subtitle format used on DVDs
Language                                 : English
Default                                  : No
Forced                                   : No



Download:
Share Online Share OnlineShare OnlineShare Online
 

Kommentare