DNS SERVER AENDERNum der staatlichen Zensur zu umgehen. Sollten wir von eurem Provider geseprrt werden, nutzt den TOR BROWSER oder ändert euren DNS SERVER.

Filmwünsche können bei uns im Forum abgegeben werden

Wir Speichern Nicht




 
 
 
Top Releases
Die.Unsichtbaren.Wir.wollen....
Prison.Break.Ein.letzter.Sch...
Prison.Break.Ein.letzter.Sch...
Die.Verlegerin.2017.MULTI.CO...
Cargo.2017.German.AC3D.DL.10...
The.Secret.Scripture.2016.Ge...
Honig.im.Kopf.2014.German.AC...
The.Ballad.of.Lefty.Brown.20...
Loving.Vincent.2017.MULTi.CO...
The.Secret.Scripture.2016.Ge...

Cinedubs
Deadpool.2.2018.GERMAN.720p....
Das.Zeitraetsel.2018.German....
Das.Zeitraetsel.2018.German....
Death.Wish.German.DL.AC3.Dub...
Death.Wish.German.DL.AC3.Dub...
Death.Wish.German.DL.AC3.Dub...
Death.Wish.German.DL.AC3.Dub...
Der.Buchladen.der.Florence.G...
Der.Buchladen.der.Florence.G...
Pacific.Rim.2.Uprising.Germa...

Neuerscheinungen 2017-18
Black.Water.2018.German.AC3D...
Zwischen.zwei.Feuern.The.Ind...
Der.Befehl.Counterpoint.1968...
Kidnapping.ein.Tag.der.Gewal...
Tango.One.2018.DUAL.COMPLETE...
Tango.One.2018.German.720p.B...
Tango.One.2018.German.DL.108...
Ibiza.2018.German.Dubbed.DL....
Topkapi.1964.MULTi.COMPLETE....
Der.grosse.Eisenbahnraub.The...

XXX
Yanks.18.05.06.Lady.Jane.Art...
TittyAttack.18.05.07.Marilyn...
WankItNow.18.05.06.Gracie.We...
TeensLoveBlackCocks.18.05.07...
VIPissy.18.05.07.Oprah.And.P...
TMWVRNet.18.05.07.Veronica.L...
ValeNappi.18.04.15.Kenzi.Tay...
SapphicErotica.18.05.07.Sara...
SneakySex.18.05.05.Alex.Chan...
Spizoo.18.05.07.Aaliyah.Hadi...
StrandedTeens.18.05.07.Chari...
ReadyOrNotHereICum.18.05.07....
StepSiblings.18.05.05.Katy.K...
SweetSinner.18.05.07.Kenna.J...
WankItNow.18.05.06.Alexa.Bro...
ValeNappi.18.04.02.JOI.With....
SlimeWave.18.05.07.Just.Chil...
ValeNappi.18.04.02.My.Virgin...
UltraFilms.18.05.06.Arwen.Go...
WickedPictures.Insomnia.XXX....

3D
Zombies.Ueberlebe.die.Untote...
Norwegen.3D.2013.GERMAN.DL.D...
Norwegen.3D.2013.GERMAN.DOKU...
Jumanji.Willkommen.im.Dschun...
Jumanji.Welcome.To.The.Jungl...
Abraham.Lincoln.Vampire.Hunt...
Norwegen.3D.2013.MULTi.COMPL...
Star.Wars.Episode.VIII.Die.l...
Star.Wars.Episode.VIII.Die.l...
Star.Wars.Episode.VIII.Die.l...
Jumanji.Welcome.To.The.Jungl...
Star.Wars.The.Last.Jedi.2017...
Final.Storm.Der.Untergang.de...
Final.Storm.Der.Untergang.de...
Jumanji.Willkommen.im.Dschun...

Old_Stuff
Tremors.3.Die.neue.Brut.2001...
Die.Indianer.von.Cleveland.2...
Dealt.2017.1080p.AMZN.WEB-DL...
Dealt.2017.720p.AMZN.WEB-DL....
Roter.Staub.aka.The.Brave.On...
Roter.Staub.aka.The.Brave.On...
Magic.in.the.Moonlight.2014....
The.LEGO.Ninjago.Movie.2017....
Zeit.der.Zaertlichkeit.1983....
Zeit.der.Zaertlichkeit.1983....
Regular.Show.S01.1080p.BluRa...
Ostfriesisch.fuer.Anfaenger....
Planet.der.Affen.Prevolution...
Final.Fantasy.VII.Advent.Chi...
City.Slickers.2.1994.German....

Filme
Der.unglaubliche.Hulk.2008.G...
Event.Horizon.-.Am.Rande.des...
Formel.1.Saison.2018.GERMAN....
R.E.D.2.Noch.aelter.Haerter....
In.3.Tagen.bist.du.tot.2.200...
Hin.und.weg.2014.GERMAN.1080...
In.Bed.with.Madonna.1991.OmU...
Hawaii.1966.German.DL.1080p....
The.Ballad.of.Lefty.Brown.20...
The.Secret.Scripture.2016.Ge...
Die.Verlegerin.2017.German.D...
R.E.D.Aelter.haerter.besser....
R.E.D.2.Noch.aelter.Haerter....
Fatso.2008.German.DL.1080p.B...
Bullyparade.Der.Film.2017.Ge...
Ancient.Aliens.-.Unerklaerli...
Ancient.Aliens.-.Unerklaerli...
Korczak.1990.German.1080p.Bl...
Das.Messer.im.Wasser.1962.Ge...
Rebecka.Martinsson.S01D01-2....
Kap.der.Angst.1991.German.DT...
R.E.D.Aelter.haerter.besser....
Orphan.Das.Waisenkind.2009.G...
The.Sweet.Hereafter.Das.sues...

 
 
Thirteen.Days.2000.German.DL.1080p.BluRay.x264-DETAiLS
Jahr: 2000
Genre: Drama, Thriller
Sprache: Deutsch DTS | Englisch DTS
Laufzeit: 2h 25mn
Bitrate: 15.0 Mbps
Format: MKV
Größe: 15.2 GiB
Release:

Beschreibung:

Oktober 1962. Amerikanische Aufklärungsflugzeuge fotografieren aus großer Höhe Truppenbewegungen auf Kuba. Als die CIA anhand der Filme erschreckt feststellt, dass die Sowjetunion nukleare Erstschlagsraketen auf Castros Eiland stationiert, beruft Präsident John F. Kennedy sofort den Krisenstab ein. Trotz immer lauter werdender Rufe der Militärs nach einer Invasion der Karibik-Insel scheut JFK vor solch rigorosen Maßnahmen zurück. Zu sehr fürchtet er die Eskalation und einen möglichen – nuklearen – Dritten Weltkrieg.



Complete name                            : d-thirteendays-1080p.mkv
Format                                   : Matroska
Format version                           : Version 2
File size                                : 15.2 GiB
Duration                                 : 2h 25mn
Overall bit rate                         : 15.0 Mbps
Movie name                               : Thirteen Days (2000)
Encoded date                             : UTC 2012-05-03 17:17:44
Writing application                      : mkvmerge v5.5.0 ('Healer') built on Apr  6 2012 21:43:24
Writing library                          : libebml v1.2.3 + libmatroska v1.3.0

Video
ID                                       : 1
Format                                   : AVC
Format/Info                              : Advanced Video Codec
Format profile                           : High@L4.1
Format settings, CABAC                   : Yes
Format settings, ReFrames                : 4 frames
Codec ID                                 : V_MPEG4/ISO/AVC
Duration                                 : 2h 25mn
Bit rate                                 : 11.7 Mbps
Width                                    : 1 920 pixels
Height                                   : 1 040 pixels
Display aspect ratio                     : 1.85:1
Frame rate mode                          : Constant
Frame rate                               : 23.976 fps
Color space                              : YUV
Chroma subsampling                       : 4:2:0
Bit depth                                : 8 bits
Scan type                                : Progressive
Bits/(Pixel*Frame)                       : 0.244
Stream size                              : 11.9 GiB (78%)
Title                                    : Thirteen Days (2000)
Writing library                          : x264 core 124 r2197 69a0443
Encoding settings                        : cabac=1 / ref=4 / deblock=1:-1:-1 / analyse=0x3:0x133 / me=umh / subme=7 / psy=1 / psy_rd=1.00:0.15 / mixed_ref=1 / me_range=16 / chroma_me=1 / trellis=1 / 8x8dct=1 / cqm=0 / deadzone=21,11 / fast_pskip=0 / chroma_qp_offset=-3 / threads=12 / sliced_threads=0 / nr=0 / decimate=1 / interlaced=0 / bluray_compat=0 / constrained_intra=0 / bframes=3 / b_pyramid=2 / b_adapt=1 / b_bias=0 / direct=3 / weightb=1 / open_gop=0 / weightp=2 / keyint=240 / keyint_min=23 / scenecut=40 / intra_refresh=0 / rc_lookahead=40 / rc=crf / mbtree=1 / crf=20.0 / qcomp=0.60 / qpmin=0 / qpmax=69 / qpstep=4 / ip_ratio=1.40 / aq=1:1.00
Default                                  : Yes
Forced                                   : No

Audio #1
ID                                       : 2
Format                                   : DTS
Format/Info                              : Digital Theater Systems
Mode                                     : 16
Format settings, Endianness              : Big
Codec ID                                 : A_DTS
Duration                                 : 2h 25mn
Bit rate mode                            : Constant
Bit rate                                 : 1 509 Kbps
Channel(s)                               : 6 channels
Channel positions                        : Front: L C R, Side: L R, LFE
Sampling rate                            : 48.0 KHz
Bit depth                                : 24 bits
Compression mode                         : Lossy
Stream size                              : 1.53 GiB (10%)
Title                                    : DTS
Language                                 : German
Default                                  : Yes
Forced                                   : No

Audio #2
ID                                       : 3
Format                                   : DTS
Format/Info                              : Digital Theater Systems
Mode                                     : 16
Format settings, Endianness              : Big
Codec ID                                 : A_DTS
Duration                                 : 2h 25mn
Bit rate mode                            : Constant
Bit rate                                 : 1 509 Kbps
Channel(s)                               : 6 channels
Channel positions                        : Front: L C R, Side: L R, LFE
Sampling rate                            : 48.0 KHz
Bit depth                                : 24 bits
Compression mode                         : Lossy
Stream size                              : 1.53 GiB (10%)
Title                                    : DTS
Language                                 : English
Default                                  : No
Forced                                   : No

Text
ID                                       : 4
Format                                   : UTF-8
Codec ID                                 : S_TEXT/UTF8
Codec ID/Info                            : UTF-8 Plain Text
Title                                    : Forced Text
Language                                 : German
Default                                  : Yes
Forced                                   : No


Download:
Share Online Share OnlineShare OnlineShare Online
 

Kommentare