DNS SERVER AENDERNum der staatlichen Zensur zu umgehen. Sollten wir von eurem Provider geseprrt werden, nutzt den TOR BROWSER oder ändert euren DNS SERVER.

Filmwünsche können bei uns im Forum abgegeben werden

Wir Speichern Nicht




 
 
 
Top Releases
Thelma.2017.German.AC3.DL.10...
Familiye.2017.German.1080p.B...
Familiye.2017.German.720p.Bl...
Midnight.Sun.Alles.fuer.dich...
Midnight.Sun.Alles.fuer.dich...
To.All.the.Boys.Ive.Loved.Be...
To.All.the.Boys.Ive.Loved.Be...
Nur.Gott.kann.mich.richten.2...
Nur.Gott.kann.mich.richten.2...
The.Death.of.Superman.2018.G...

Cinedubs
Breaking.In.2018.UNRATED.GER...
Breaking.In.2018.UNRATED.GER...
Breaking.In.2018.UNRATED.GER...
Deadpool.2.2018.Super.Duper....
Deadpool.2.2018.Super.Duper....
Die.Farbe.des.Horizonts.2018...
Die.Farbe.des.Horizonts.2018...
Catch.Me.2018.GERMAN.DL.AC3....
Catch.Me.2018.GERMAN.DL.AC3....
Deadpool.2.Super.Duper.Cut.2...

Neuerscheinungen 2017-18
Lazer.Team.2015.DC.German.DL...
Lazer.Team.2015.DC.German.72...
Badlands.1973.MULTi.COMPLETE...
A.Thought.of.Ecstasy.2017.MU...
Criminal.Squad.THEATRICAL.20...
Criminal.Squad.THEATRICAL.20...
Criminal.Squad.THEATRICAL.20...
Criminal.Squad.THEATRICAL.20...
Action.Point.2018.German.AC3...
A.Thought.of.Ecstasy.2017.Ge...

XXX
ClubSeventeen.18.08.13.Ashle...
AssParade.18.08.13.Julianna....
Babes.18.08.14.Elena.Koshka....
Beauty-Angels.18.08.14.Foxxi...
Analized.18.08.13.Liv.Revamp...
AllOver30.18.08.14.Elegant.E...
Anilos.18.08.14.Tasha.Grant....
BlackPayBack.E09.Nadia.White...
Bang.RealMILFs.18.08.14.Blat...
BCM.18.08.13.Jennifer.White....
AnalTeenAngels.18.08.14.Lore...
BreakingAsses.18.08.14.Mira....
Cosmid.18.08.08.Karly.Peters...
Cosmid.18.08.10.Jameika.Turn...
BlacksOnBlondes.18.08.14.Can...
Blacked.18.08.13.Marley.Brin...
AllHerLuv.18.06.06.Ivy.Wolfe...
CherryPimps.18.08.13.Aiden.A...
BoxTruckSex.18.08.13.Naomi.B...
BruceAndMorgan.18.08.10.Sexy...

3D
Avengers.Infinity.War.3D.201...
Rampage.Big.Meets.Bigger.3D....
Rampage.Big.Meets.Bigger.3D....
Rampage.Big.Meets.Bigger.3D....
Winter.Games.3D.2013.DUAL.CO...
Tomb.Raider.3D.2018.German.7...
Rampage.Big.Meets.Bigger.3D....
Rampage.Big.Meets.Bigger.3D....
Tomb.Raider.3D.2018.MULTi.CO...
Pacific.Rim.Uprising.3D.2018...
Ready.Player.One.3D.2018.Ger...
Rampage.-.Big.Meets.Bigger.2...
Ready.Player.One.2018.3D.HOU...
Ready.Player.One.2018.3D.HSB...
Ready.Player.One.3D.2018.MUL...

Old_Stuff
Meine.liebe.Rabenmutter.germ...
Da.Vincis.Demons.S01.Complet...
Eragon.Das.Vermaechtnis.der....
Adele.und.das.Geheimnis.des....
Die.fabelhafte.Welt.der.Amel...
Haus.des.Geldes.S01.German.M...
How.I.Met.Your.Mother.S01.Ge...
The.Dark.Knight.Rises.2012.M...
Weissensee.S03.2015.GERMAN.C...
Weissensee.S01+S02.2010.GERM...
Die.Unglaublichen.-.The.Incr...
Der.grosse.Trick.1978.German...
Sully.2016.MULTi.COMPLETE.BL...
Tremors.3.Die.neue.Brut.2001...
Die.Indianer.von.Cleveland.2...

Filme
The.Flash.2014.S04.GERMAN.72...
Supergirl.S03.GERMAN.720p.HD...
Gotham.S04.GERMAN.720p.HDTV....
The.Americans.2013.S05.GERMA...
Rampage.Capital.Punishment.2...
Rampage.Black.Edition.Uncut....
Rampage.President.Down.2016....
Von.Ryans.Express.1965.Germa...
Prometheus.Open.Matte.2012.G...
The.Marine.2.2009.German.AC3...
Spider-Man.2.1.Extended.2004...
Verfluchtes.Amsterdam.1988.G...
Vergessene.Welt.Jurassic.Par...
Verhandlungssache.1998.Germa...
Der.heilige.Krieg.2011.COMPL...
Komplizen.des.Boesen.2018.CO...
Exorcist.Der.gefallene.Engel...
Fighter.Gang.UNCUT.1981.Germ...
Partymonster.Kratzen.an.der....
Partymonster.Kratzen.an.der....
H.P.Lovecrafts.Dagon.2001.UN...
Ho.Die.Nr.1.bin.ich.1968.Ger...
Mama.Mia.-.Nur.keine.Panik.1...
Ip.Man.2008.German.DTS.1080p...

 
 
Wunder.2017.German.720p.BluRay.x264-ENCOUNTERS
Jahr: 2017
Genre: Drama, Familie
Sprache: Deutsch DTS
Laufzeit: 1h 53mn
Bitrate: 3 252 Kbps
Format: MKV
Größe: 2.59 GiB
Release:

Beschreibung:

August Pullman (Jacob Tremblay), der von allen „Auggie“ genannt wird, ist humorvoll, schlau und liebenswert, hat eine tolle Familie und ist dennoch seit seiner Geburt ein Außenseiter. Denn er hat aufgrund eines Gendefektes ein stark entstelltes Gesicht, das es unmöglich erscheinen lässt, dass er auf eine reguläre Schule geht. Stattdessen wird er zu Hause von seiner Mutter Isabel (Julia Roberts) unterrichtet. Als er jedoch zehn Jahre alt wird, diskutieren seine Mutter und sein Vater (Owen Wilson) darüber, ihn nicht vielleicht doch am üblichen Schulbetrieb teilnehmen zu lassen, weshalb er kurz darauf in die fünfte Klasse an der Beecher Prep geht. Dort lernt er trotz anfänglicher Schwierigkeiten, sich mit seinem Äußeren zu arrangieren und findet schnell neue Freunde.



Complete name                            : encounters-wunder_720p.mkv
Format                                   : Matroska
Format version                           : Version 4 / Version 2
File size                                : 2.59 GiB
Duration                                 : 1h 53mn
Overall bit rate                         : 3 252 Kbps
Encoded date                             : UTC 2018-05-15 13:13:44
Writing application                      : mkvmerge v19.0.0 ('Brave Captain') 64-bit
Writing library                          : libebml v1.3.5 + libmatroska v1.4.8
DURATION                                 : 01:22:52.217000000
NUMBER_OF_FRAMES                         : 6
NUMBER_OF_BYTES                          : 157
_STATISTICS_WRITING_APP                  : mkvmerge v19.0.0 ('Brave Captain') 64-bit
_STATISTICS_WRITING_DATE_UTC             : 2018-05-15 13:13:44
_STATISTICS_TAGS                         : BPS DURATION NUMBER_OF_FRAMES NUMBER_OF_BYTES

Video
ID                                       : 1
Format                                   : AVC
Format/Info                              : Advanced Video Codec
Format profile                           : High@L4.1
Format settings, CABAC                   : Yes
Format settings, ReFrames                : 5 frames
Codec ID                                 : V_MPEG4/ISO/AVC
Duration                                 : 1h 53mn
Bit rate                                 : 1 678 Kbps
Width                                    : 1 280 pixels
Height                                   : 536 pixels
Display aspect ratio                     : 2.40:1
Frame rate mode                          : Constant
Frame rate                               : 23.976 fps
Color space                              : YUV
Chroma subsampling                       : 4:2:0
Bit depth                                : 8 bits
Scan type                                : Progressive
Bits/(Pixel*Frame)                       : 0.102
Stream size                              : 1.33 GiB (52%)
Title                                    : encounters-wunder_720p
Writing library                          : x264 core 155 r2901 7d0ff22
Encoding settings                        : cabac=1 / ref=5 / deblock=1:-1:-1 / analyse=0x3:0x133 / me=umh / subme=7 / psy=1 / psy_rd=1.00:0.15 / mixed_ref=1 / me_range=16 / chroma_me=1 / trellis=1 / 8x8dct=1 / cqm=0 / deadzone=21,11 / fast_pskip=0 / chroma_qp_offset=-3 / threads=17 / lookahead_threads=2 / sliced_threads=0 / nr=0 / decimate=1 / interlaced=0 / bluray_compat=0 / constrained_intra=0 / bframes=3 / b_pyramid=2 / b_adapt=1 / b_bias=0 / direct=1 / weightb=1 / open_gop=0 / weightp=2 / keyint=250 / keyint_min=23 / scenecut=40 / intra_refresh=0 / rc_lookahead=40 / rc=crf / mbtree=1 / crf=20.0 / qcomp=0.60 / qpmin=0 / qpmax=69 / qpstep=4 / ip_ratio=1.40 / aq=1:1.00
Default                                  : Yes
Forced                                   : No

Audio
ID                                       : 2
Format                                   : DTS
Format/Info                              : Digital Theater Systems
Mode                                     : 16
Format settings, Endianness              : Big
Codec ID                                 : A_DTS
Duration                                 : 1h 53mn
Bit rate mode                            : Constant
Bit rate                                 : 1 509 Kbps
Channel(s)                               : 6 channels
Channel positions                        : Front: L C R, Side: L R, LFE
Sampling rate                            : 48.0 KHz
Bit depth                                : 24 bits
Compression mode                         : Lossy
Stream size                              : 1.20 GiB (46%)
Title                                    : German DTS 5.1 @ 1 509 Kbps
Language                                 : German
Default                                  : Yes
Forced                                   : No

Text
ID                                       : 3
Format                                   : UTF-8
Codec ID                                 : S_TEXT/UTF8
Codec ID/Info                            : UTF-8 Plain Text
Title                                    : ger_forced.srt
Language                                 : German
Default                                  : Yes
Forced                                   : Yes


Download:
Share Online Share OnlineShare OnlineShare Online
 

Kommentare