DNS SERVER AENDERNum der staatlichen Zensur zu umgehen. Sollten wir von eurem Provider geseprrt werden, nutzt den TOR BROWSER oder ändert euren DNS SERVER.

Filmwünsche können bei uns im Forum abgegeben werden

Wir Speichern Nicht




 
 
 
Top Releases
Die.Unsichtbaren.Wir.wollen....
Prison.Break.Ein.letzter.Sch...
Prison.Break.Ein.letzter.Sch...
Die.Verlegerin.2017.MULTI.CO...
Cargo.2017.German.AC3D.DL.10...
The.Secret.Scripture.2016.Ge...
Honig.im.Kopf.2014.German.AC...
The.Ballad.of.Lefty.Brown.20...
Loving.Vincent.2017.MULTi.CO...
The.Secret.Scripture.2016.Ge...

Cinedubs
Deadpool.2.2018.GERMAN.720p....
Das.Zeitraetsel.2018.German....
Das.Zeitraetsel.2018.German....
Death.Wish.German.DL.AC3.Dub...
Death.Wish.German.DL.AC3.Dub...
Death.Wish.German.DL.AC3.Dub...
Death.Wish.German.DL.AC3.Dub...
Der.Buchladen.der.Florence.G...
Der.Buchladen.der.Florence.G...
Pacific.Rim.2.Uprising.Germa...

Neuerscheinungen 2017-18
Black.Water.2018.German.AC3D...
Zwischen.zwei.Feuern.The.Ind...
Der.Befehl.Counterpoint.1968...
Kidnapping.ein.Tag.der.Gewal...
Tango.One.2018.DUAL.COMPLETE...
Tango.One.2018.German.720p.B...
Tango.One.2018.German.DL.108...
Ibiza.2018.German.Dubbed.DL....
Topkapi.1964.MULTi.COMPLETE....
Der.grosse.Eisenbahnraub.The...

XXX
Yanks.18.05.06.Lady.Jane.Art...
TittyAttack.18.05.07.Marilyn...
WankItNow.18.05.06.Gracie.We...
TeensLoveBlackCocks.18.05.07...
VIPissy.18.05.07.Oprah.And.P...
TMWVRNet.18.05.07.Veronica.L...
ValeNappi.18.04.15.Kenzi.Tay...
SapphicErotica.18.05.07.Sara...
SneakySex.18.05.05.Alex.Chan...
Spizoo.18.05.07.Aaliyah.Hadi...
StrandedTeens.18.05.07.Chari...
ReadyOrNotHereICum.18.05.07....
StepSiblings.18.05.05.Katy.K...
SweetSinner.18.05.07.Kenna.J...
WankItNow.18.05.06.Alexa.Bro...
ValeNappi.18.04.02.JOI.With....
SlimeWave.18.05.07.Just.Chil...
ValeNappi.18.04.02.My.Virgin...
UltraFilms.18.05.06.Arwen.Go...
WickedPictures.Insomnia.XXX....

3D
Zombies.Ueberlebe.die.Untote...
Norwegen.3D.2013.GERMAN.DL.D...
Norwegen.3D.2013.GERMAN.DOKU...
Jumanji.Willkommen.im.Dschun...
Jumanji.Welcome.To.The.Jungl...
Abraham.Lincoln.Vampire.Hunt...
Norwegen.3D.2013.MULTi.COMPL...
Star.Wars.Episode.VIII.Die.l...
Star.Wars.Episode.VIII.Die.l...
Star.Wars.Episode.VIII.Die.l...
Jumanji.Welcome.To.The.Jungl...
Star.Wars.The.Last.Jedi.2017...
Final.Storm.Der.Untergang.de...
Final.Storm.Der.Untergang.de...
Jumanji.Willkommen.im.Dschun...

Old_Stuff
Tremors.3.Die.neue.Brut.2001...
Die.Indianer.von.Cleveland.2...
Dealt.2017.1080p.AMZN.WEB-DL...
Dealt.2017.720p.AMZN.WEB-DL....
Roter.Staub.aka.The.Brave.On...
Roter.Staub.aka.The.Brave.On...
Magic.in.the.Moonlight.2014....
The.LEGO.Ninjago.Movie.2017....
Zeit.der.Zaertlichkeit.1983....
Zeit.der.Zaertlichkeit.1983....
Regular.Show.S01.1080p.BluRa...
Ostfriesisch.fuer.Anfaenger....
Planet.der.Affen.Prevolution...
Final.Fantasy.VII.Advent.Chi...
City.Slickers.2.1994.German....

Filme
Der.unglaubliche.Hulk.2008.G...
Event.Horizon.-.Am.Rande.des...
Formel.1.Saison.2018.GERMAN....
R.E.D.2.Noch.aelter.Haerter....
In.3.Tagen.bist.du.tot.2.200...
Hin.und.weg.2014.GERMAN.1080...
In.Bed.with.Madonna.1991.OmU...
Hawaii.1966.German.DL.1080p....
The.Ballad.of.Lefty.Brown.20...
The.Secret.Scripture.2016.Ge...
Die.Verlegerin.2017.German.D...
R.E.D.Aelter.haerter.besser....
R.E.D.2.Noch.aelter.Haerter....
Fatso.2008.German.DL.1080p.B...
Bullyparade.Der.Film.2017.Ge...
Ancient.Aliens.-.Unerklaerli...
Ancient.Aliens.-.Unerklaerli...
Korczak.1990.German.1080p.Bl...
Das.Messer.im.Wasser.1962.Ge...
Rebecka.Martinsson.S01D01-2....
Kap.der.Angst.1991.German.DT...
R.E.D.Aelter.haerter.besser....
Orphan.Das.Waisenkind.2009.G...
The.Sweet.Hereafter.Das.sues...

 
 
The.Meyerowitz.Stories.New.and.Selected.2017.German.DL.AC3.1080p.WebHD.x265-FuN
Jahr: 2017
Genre: Komödie
Sprache: Deutsch AC3 | Englisch AC3
Laufzeit: 1h 52mn
Bitrate: 3 406 Kbps
Format: MKV
Größe: 2.68 GiB
Release:

Beschreibung:

Danny Meyerowitz (Adam Sandler) lebt im Schatten seines Vaters Harold (Dustin Hoffman), einem egoistischen, mittelmäßig erfolgreichen Bildhauer – und besonders gut lebt Danny dort nicht. Frisch geschieden und körperlich nicht in der Lage, lange zu sitzen, ohne danach zu hinken, kommt er genauso wenig vom Vater los wie seine Schwester Jean (Elizabeth Marvel). Beide wollen Anerkennung, die ihnen der Papa konsequent verweigert. Nur Halbbruder Matthew (Ben Stiller) konnte sich abkapseln. Er lebt als Businessmanager in Los Angeles, wo er das Vermögen von Künstlern wie Randy (Adam Driver) verwaltet, die ihn mit ihren Allüren nerven. Außerdem bereitet Matthew den Verkauf des Familienhauses in Manhattan vor. Der alte, selbstbezogene Harold könnte unterdessen viel kranker sein, als er denkt…




Format                                   : Matroska
Format version                           : Version 4 / Version 2
File size                                : 2.68 GiB
Duration                                 : 1h 52mn
Overall bit rate                         : 3 406 Kbps
Encoded date                             : UTC 2018-04-13 11:32:46
Writing application                      : mkvmerge v22.0.0 ('At The End Of The World') 64-bit
Writing library                          : libebml v1.3.5 + libmatroska v1.4.8

Video
ID                                       : 1
Format                                   : HEVC
Format/Info                              : High Efficiency Video Coding
Format profile                           : Main@L4.0
Codec ID                                 : V_MPEGH/ISO/HEVC
Duration                                 : 1h 52mn
Bit rate                                 : 2 570 Kbps
Width                                    : 1 920 pixels
Height                                   : 1 036 pixels
Display aspect ratio                     : 1.85:1
Frame rate mode                          : Constant
Frame rate                               : 23.976 fps
Color space                              : YUV
Chroma subsampling                       : 4:2:0
Bit depth                                : 8 bits
Bits/(Pixel*Frame)                       : 0.054
Stream size                              : 2.02 GiB (75%)
Writing library                          : x265 2.1:[Linux][GCC 5.4.0][64 bit] 8bit
Encoding settings                        : wpp / ctu=64 / min-cu-size=8 / max-tu-size=32 / tu-intra-depth=1 / tu-inter-depth=1 / me=1 / subme=2 / merange=57 / no-rect / no-amp / max-merge=2 / temporal-mvp / no-early-skip / rskip / rdpenalty=0 / no-tskip / no-tskip-fast / no-strong-intra-smoothing / no-lossless / no-cu-lossless / no-constrained-intra / no-fast-intra / open-gop / no-temporal-layers / interlace=0 / keyint=240 / min-keyint=24 / scenecut=40 / rc-lookahead=20 / lookahead-slices=6 / bframes=4 / bframe-bias=0 / b-adapt=2 / ref=3 / limit-refs=3 / no-limit-modes / weightp / no-weightb / aq-mode=1 / qg-size=32 / aq-strength=1,00 / cbqpoffs=0 / crqpoffs=0 / rd=3 / psy-rd=2,00 / rdoq-level=0 / psy-rdoq=0,00 / log2-max-poc-lsb=8 / no-rd-refine / signhide / deblock=0:0 / no-sao / no-sao-non-deblock / b-pyramid / cutree / no-intra-refresh / rc=crf / crf=23,0 / qcomp=0,60 / qpmin=0 / qpmax=69 / qpstep=4 / ipratio=1,40 / pbratio=1,30
Default                                  : Yes
Forced                                   : No
DURATION                                 : 01:52:41.130000000
NUMBER_OF_FRAMES                         : 162105
NUMBER_OF_BYTES                          : 2227034906
_STATISTICS_WRITING_APP                  : mkvmerge v22.0.0 ('At The End Of The World') 64-bit
_STATISTICS_WRITING_DATE_UTC             : 2018-04-13 11:32:46
_STATISTICS_TAGS                         : BPS DURATION NUMBER_OF_FRAMES NUMBER_OF_BYTES

Audio #1
ID                                       : 2
Format                                   : AC-3
Format/Info                              : Audio Coding 3
Mode extension                           : CM (complete main)
Format settings, Endianness              : Big
Codec ID                                 : A_AC3
Duration                                 : 1h 52mn
Bit rate mode                            : Constant
Bit rate                                 : 384 Kbps
Channel(s)                               : 6 channels
Channel positions                        : Front: L C R, Side: L R, LFE
Sampling rate                            : 48.0 KHz
Bit depth                                : 16 bits
Compression mode                         : Lossy
Stream size                              : 310 MiB (11%)
Title                                    : Surround
Language                                 : German
Default                                  : Yes
Forced                                   : Yes
DURATION                                 : 01:52:41.504000000
NUMBER_OF_FRAMES                         : 211297
NUMBER_OF_BYTES                          : 324552192
_STATISTICS_WRITING_APP                  : mkvmerge v22.0.0 ('At The End Of The World') 64-bit
_STATISTICS_WRITING_DATE_UTC             : 2018-04-13 11:32:46
_STATISTICS_TAGS                         : BPS DURATION NUMBER_OF_FRAMES NUMBER_OF_BYTES

Audio #2
ID                                       : 3
Format                                   : AC-3
Format/Info                              : Audio Coding 3
Mode extension                           : CM (complete main)
Format settings, Endianness              : Big
Codec ID                                 : A_AC3
Duration                                 : 1h 52mn
Bit rate mode                            : Constant
Bit rate                                 : 384 Kbps
Channel(s)                               : 6 channels
Channel positions                        : Front: L C R, Side: L R, LFE
Sampling rate                            : 48.0 KHz
Bit depth                                : 16 bits
Compression mode                         : Lossy
Stream size                              : 310 MiB (11%)
Title                                    : Surround
Language                                 : English
Default                                  : No
Forced                                   : No
DURATION                                 : 01:52:41.504000000
NUMBER_OF_FRAMES                         : 211297
NUMBER_OF_BYTES                          : 324552192
_STATISTICS_WRITING_APP                  : mkvmerge v22.0.0 ('At The End Of The World') 64-bit
_STATISTICS_WRITING_DATE_UTC             : 2018-04-13 11:32:46
_STATISTICS_TAGS                         : BPS DURATION NUMBER_OF_FRAMES NUMBER_OF_BYTES

Text #1
ID                                       : 4
Format                                   : ASS
Codec ID                                 : S_TEXT/ASS
Codec ID/Info                            : Advanced Sub Station Alpha
Compression mode                         : Lossless
Title                                    : forced
Language                                 : German
Default                                  : Yes
Forced                                   : Yes
DURATION                                 : 01:51:50.837000000
NUMBER_OF_FRAMES                         : 44
NUMBER_OF_BYTES                          : 2465
_STATISTICS_WRITING_APP                  : mkvmerge v22.0.0 ('At The End Of The World') 64-bit
_STATISTICS_WRITING_DATE_UTC             : 2018-04-13 11:32:46
_STATISTICS_TAGS                         : BPS DURATION NUMBER_OF_FRAMES NUMBER_OF_BYTES

Text #2
ID                                       : 5
Format                                   : ASS
Codec ID                                 : S_TEXT/ASS
Codec ID/Info                            : Advanced Sub Station Alpha
Compression mode                         : Lossless
Title                                    : full
Language                                 : German
Default                                  : No
Forced                                   : No
DURATION                                 : 01:51:50.837000000
NUMBER_OF_FRAMES                         : 2039
NUMBER_OF_BYTES                          : 124418
_STATISTICS_WRITING_APP                  : mkvmerge v22.0.0 ('At The End Of The World') 64-bit
_STATISTICS_WRITING_DATE_UTC             : 2018-04-13 11:32:46
_STATISTICS_TAGS                         : BPS DURATION NUMBER_OF_FRAMES NUMBER_OF_BYTES

Text #3
ID                                       : 6
Format                                   : ASS
Codec ID                                 : S_TEXT/ASS
Codec ID/Info                            : Advanced Sub Station Alpha
Compression mode                         : Lossless
Title                                    : full
Language                                 : English
Default                                  : No
Forced                                   : No
DURATION                                 : 01:48:54.148000000
NUMBER_OF_FRAMES                         : 2167
NUMBER_OF_BYTES                          : 138171
_STATISTICS_WRITING_APP                  : mkvmerge v22.0.0 ('At The End Of The World') 64-bit
_STATISTICS_WRITING_DATE_UTC             : 2018-04-13 11:32:46
_STATISTICS_TAGS                         : BPS DURATION NUMBER_OF_FRAMES NUMBER_OF_BYTES

Text #4
ID                                       : 7
Format                                   : ASS
Codec ID                                 : S_TEXT/ASS
Codec ID/Info                            : Advanced Sub Station Alpha
Compression mode                         : Lossless
Title                                    : full hearing impaired
Language                                 : English
Default                                  : No
Forced                                   : No
DURATION                                 : 01:51:39.686000000
NUMBER_OF_FRAMES                         : 2249
NUMBER_OF_BYTES                          : 143408
_STATISTICS_WRITING_APP                  : mkvmerge v22.0.0 ('At The End Of The World') 64-bit
_STATISTICS_WRITING_DATE_UTC             : 2018-04-13 11:32:46
_STATISTICS_TAGS                         : BPS DURATION NUMBER_OF_FRAMES NUMBER_OF_BYTES





Download:
Share Online Share OnlineShare OnlineShare Online
 

Kommentare