DNS SERVER AENDERNum der staatlichen Zensur zu umgehen. Sollten wir von eurem Provider geseprrt werden, nutzt den TOR BROWSER oder ändert euren DNS SERVER.

Filmwünsche können bei uns im Forum abgegeben werden

Wir Speichern Nicht




 
 
 
Top Releases
12.Strong.2018.MULTi.COMPLET...
Mollys.Game.Alles.auf.eine.K...
Mollys.Game.Alles.auf.eine.K...
Low.Budget.Stuntman.2017.DUA...
Low.Budget.Stuntman.2017.Ger...
Low.Budget.Stuntman.2017.Ger...
Game.Night.2018.MULTI.COMPLE...
God.of.War.2017.MULTi.COMPLE...
God.of.War.2017.German.1080p...
God.of.War.2017.German.720p....

Cinedubs
Gans.im.Glueck.2017.German.D...
Gans.im.Glueck.2017.German.D...
Die.Frau.die.vorausgeht.2017...
Die.Frau.die.vorausgeht.2017...
Super.Troopers.2.2018.German...
Thoroughbreds.2017.German.AC...
Thoroughbreds.2017.German.AC...
Vom.Ende.einer.Geschichte.20...
Vom.Ende.einer.Geschichte.20...
I.Feel.Pretty.2018.German.AC...

Neuerscheinungen 2017-18
Blutrache.Blood.Hunt.2017.CO...
Ritter.der.Nacht.1959.German...
Blutrache.Blood.Hunt.2017.Ge...
Blutrache.Blood.Hunt.2017.Ge...
Das.Schweigen.The.Silence.19...
Teenage.Mutant.Ninja.Turtles...
Der.Gejagte.Ritter.der.Nacht...
Startup.2001.German.DTS.DL.1...
Startup.2001.German.DTS.720p...
Banditen.2001.German.DL.1080...

XXX
Babes.Illustrated.Cougars.Lo...
Daring.Past.Times.XXX.1080p....
Oriental.Rugs.5.XXX.1080p.WE...
Room.69.XXX.1080p.WEBRip.MP4...
We.Want.Black.XXX.1080p.WEBR...
AnalOverdose.18.07.12.Pepper...
CastingFrancais.18.07.12.Nin...
Defloration.18.07.12.Jennife...
DeviceBondage.18.07.12.Sammi...
FakeAgent.18.07.12.Paulina.S...
FirstTimeAuditions.18.07.12....
Hustler.18.07.12.Ayumi.Anime...
MomXXX.18.07.12.Elen.Million...
RKPrime.18.07.12.Nola.Blu.Tw...
StreetSuckers.18.07.12.Ena.S...
TrueAnal.18.07.12.Tara.Ashle...
My.Best.Friends.Wife.XXX.WEB...
My.New.Hot.Stepmother.XXX.72...
Pornstar.Workout.720p.XXX.Bl...
Private.Blockbusters.Appetit...

3D
Ready.Player.One.2018.3D.HOU...
Ready.Player.One.2018.3D.HSB...
Ready.Player.One.3D.2018.MUL...
Black.Panther.3D.2018.MULTI....
Black.Panther.3D.HOU.2018.Ge...
Black.Panther.3D.HSBS.2018.G...
Best.of.3D.vol.04.-.06.GERMA...
Tomb.Raider.2018.3D.HOU.Germ...
Tomb.Raider.2018.3D.HSBS.Ger...
Tomb.Raider.2018.3D.COMPLETE...
Zombies.Ueberlebe.die.Untote...
Der.Dschungel.Der.Zauber.ein...
Penthouse.Presents.Sexy.Sing...
The.LEGO.Ninjago.Movie.3D.20...
Zombies.Ueberlebe.die.Untote...

Old_Stuff
Meine.liebe.Rabenmutter.germ...
Da.Vincis.Demons.S01.Complet...
Eragon.Das.Vermaechtnis.der....
Adele.und.das.Geheimnis.des....
Die.fabelhafte.Welt.der.Amel...
Haus.des.Geldes.S01.German.M...
How.I.Met.Your.Mother.S01.Ge...
The.Dark.Knight.Rises.2012.M...
Weissensee.S03.2015.GERMAN.C...
Weissensee.S01+S02.2010.GERM...
Die.Unglaublichen.-.The.Incr...
Der.grosse.Trick.1978.German...
Sully.2016.MULTi.COMPLETE.BL...
Tremors.3.Die.neue.Brut.2001...
Die.Indianer.von.Cleveland.2...

Filme
The.Flash.2014.S04.GERMAN.10...
Supergirl.S03.GERMAN.1080p.H...
Marvels.Agents.of.S.H.I.E.L....
Marvels.Agents.of.S.H.I.E.L....
Einmal.ist.keinmal.German.DL...
Jahre.der.Zaertlichkeit.-.Di...
Elektra.Luxx.2010.German.DL....
Killing.Salazar.2016.German....
Best.of.3D.vol.07.-.09.GERMA...
Wie.beim.ersten.Mal.German.D...
Julia.Blutige.Rache.2014.Ger...
Akte.X.S11.COMPLETE.German.D...
Devour.-.Der.schwarze.Pfad.2...
Akte.X.S11.COMPLETE.German.D...
The.War.Within.2005.German.A...
Modigliani.2004.German.AC3D....
Vier.Fliegen.auf.grauem.Samt...
Die.Trapp.Familie.in.Amerika...
Die.Trapp.Familie.in.Amerika...
Frankenstein.schuf.ein.Weib....
Frankenstein.schuf.ein.Weib....
Die.Trapp.Familie.1956.Germa...
Ich.liebe.dich.zu.Tode.1990....
Gehirnwaesche.1979.German.AC...

 
 
In.the.Dark.S01.COMPLETE.GERMAN.720p.HDTV.x264.INTERNAL-ACED
Jahr: 2017
Genre: Krimi | Drama
Sprache: Deutsch AC3
Laufzeit: 50min je Folge
Bitrate: 2400 Kbps
Format: MKV
Größe: 1 GB je Folge
Release:

Beschreibung:

Die Serie „In the Dark“, basierend auf Romanen von Krimiautor Mark Billingham, wird in zwei separaten Teilen die Geschichte der engagierten, draufgängerischen und komplexen Polizistin Helen Weeks (MyAnna Buring) erzählen.

Die ersten beiden Episoden drehen sich um Helen, die gerade erfahren hat, dass sie schwanger ist. Zusammen mit ihrem Partner und Kollegen Paul (Ben Batt) beschließt sie in ihre Heimatstadt Polesford, Derbyshire, zu ziehen. Dort wird sie sogleich in einen Kriminalfall hineingezogen. Zwei Mädchen wurden entführt und ein Mann wurde bereits verhaftet. Der Verdächtige ist der Ehemann von Helens bester Freundin aus der Schulzeit, Linda Bates (Emma Fryer).



General
Complete name                            : In.the.Dark.S01E01.GERMAN.720p.HDTV.x264.INTERNAL-ACED\In.the.Dark.S01E01.GERMAN.720p.HDTV.x264.INTERNAL-ACED.mkv
Format                                   : Matroska
Format version                           : Version 4 / Version 2
File size                                : 1.08 GiB
Duration                                 : 52mn 15s
Overall bit rate                         : 2 945 Kbps
Encoded date                             : UTC 2018-05-16 07:39:02
Writing application                      : mkvmerge v23.0.0 ('The Bride Said No') 64-bit
Writing library                          : libebml v1.3.6 + libmatroska v1.4.9

Video
ID                                       : 1
Format                                   : AVC
Format/Info                              : Advanced Video Codec
Format profile                           : High@L4.1
Format settings, CABAC                   : Yes
Format settings, ReFrames                : 5 frames
Codec ID                                 : V_MPEG4/ISO/AVC
Duration                                 : 52mn 15s
Bit rate                                 : 2 438 Kbps
Width                                    : 1 280 pixels
Height                                   : 714 pixels
Display aspect ratio                     : 16:9
Frame rate mode                          : Constant
Frame rate                               : 25.000 fps
Color space                              : YUV
Chroma subsampling                       : 4:2:0
Bit depth                                : 8 bits
Scan type                                : Progressive
Bits/(Pixel*Frame)                       : 0.107
Stream size                              : 912 MiB (83%)
Writing library                          : x264 core 155 r2901 7d0ff22
Encoding settings                        : cabac=1 / ref=5 / deblock=1:-3:-3 / analyse=0x3:0x113 / me=umh / subme=9 / psy=1 / psy_rd=1.00:0.00 / mixed_ref=1 / me_range=16 / chroma_me=1 / trellis=2 / 8x8dct=1 / cqm=0 / deadzone=21,11 / fast_pskip=0 / chroma_qp_offset=-2 / threads=12 / lookahead_threads=1 / sliced_threads=0 / nr=0 / decimate=1 / interlaced=0 / bluray_compat=0 / constrained_intra=0 / bframes=3 / b_pyramid=2 / b_adapt=2 / b_bias=0 / direct=3 / weightb=1 / open_gop=0 / weightp=2 / keyint=250 / keyint_min=25 / scenecut=40 / intra_refresh=0 / rc_lookahead=50 / rc=crf / mbtree=1 / crf=18.0 / qcomp=0.60 / qpmin=0 / qpmax=69 / qpstep=4 / ip_ratio=1.40 / aq=1:1.00
Language                                 : English
Default                                  : Yes
Forced                                   : No

Audio
ID                                       : 2
Format                                   : AC-3
Format/Info                              : Audio Coding 3
Mode extension                           : CM (complete main)
Format settings, Endianness              : Big
Codec ID                                 : A_AC3
Duration                                 : 52mn 15s
Bit rate mode                            : Constant
Bit rate                                 : 448 Kbps
Channel(s)                               : 2 channels
Channel positions                        : Front: L R
Sampling rate                            : 48.0 KHz
Bit depth                                : 16 bits
Compression mode                         : Lossy
Stream size                              : 167 MiB (15%)
Language                                 : German
Default                                  : Yes
Forced                                   : No



Download:
Share-Online.biz Share-Online.bizShare-Online.bizShare-Online.biz | Rapidgator.net Rapidgator.netRapidgator.netRapidgator.net
 

Kommentare