DNS SERVER AENDERNum der staatlichen Zensur zu umgehen. Sollten wir von eurem Provider geseprrt werden, nutzt den TOR BROWSER oder ändert euren DNS SERVER.

Filmwünsche können bei uns im Forum abgegeben werden

Wir Speichern Nicht




 
 
 
Top Releases
The.Death.of.Stalin.2017.Ger...
Revenge.2017.German.AC3.DL.1...
Avengers.Infinity.War.2018.G...
Avengers.Infinity.War.2018.G...
Avengers.Infinity.War.2018.G...
Avengers.Infinity.War.2018.M...
I.Tonya.2017.German.AC3.DL.1...
Terminator.Genisys.Fancut.20...
Unsane.Ausgeliefert.2018.Ger...
Unsane.Ausgeliefert.2018.Ger...

Cinedubs
Deadpool.2.2018.Super.Duper....
Deadpool.2.2018.Super.Duper....
Die.Farbe.des.Horizonts.2018...
Die.Farbe.des.Horizonts.2018...
Catch.Me.2018.GERMAN.DL.AC3....
Catch.Me.2018.GERMAN.DL.AC3....
Deadpool.2.Super.Duper.Cut.2...
Deadpool.2.2018.German.AC3D....
Skyscraper.2018.German.AC3LD...
Skyscraper.2018.GERMAN.DL.AC...

Neuerscheinungen 2017-18
A.Thought.of.Ecstasy.2017.MU...
Criminal.Squad.THEATRICAL.20...
Criminal.Squad.THEATRICAL.20...
Criminal.Squad.THEATRICAL.20...
Criminal.Squad.THEATRICAL.20...
Action.Point.2018.German.AC3...
A.Thought.of.Ecstasy.2017.Ge...
A.Thought.of.Ecstasy.2017.Ge...
The.Package.2018.GERMAN.720p...
Norma.Rae.1979.MULTi.COMPLET...

XXX
MyLifeInMiami.18.08.07.Abbi....
MyFriendsHotMom.18.08.11.Tex...
ATKGirlfriends.18.08.11.Jade...
NannySpy.18.08.11.Bailey.Bro...
PlayboyPlus.18.08.12.Mashup....
Philavise.18.06.16.Miranda.M...
ReadyOrNotHereICum.18.08.11....
MomIsHorny.18.08.11.Alura.Je...
MommysGirl.18.08.11.Kristen....
PornMegaLoad.18.08.10.Alexya...
Nubiles.18.08.11.Jennifer.Li...
RealWifeStories.18.08.11.Lel...
LesbianX.18.08.11.Zoey.Monro...
WankItNow.17.09.05.Ashley.Ri...
SheWillCheat.18.08.09.India....
WankItNow.17.09.06.Tindra.Fr...
WcpClub.18.08.03.Bugatti.Bub...
WankItNow.17.09.04.Georgie.N...
Philavise.18.06.01.Gracie.Ma...
SapphicErotica.18.08.11.Lady...

3D
Rampage.Big.Meets.Bigger.3D....
Rampage.Big.Meets.Bigger.3D....
Winter.Games.3D.2013.DUAL.CO...
Tomb.Raider.3D.2018.German.7...
Rampage.Big.Meets.Bigger.3D....
Rampage.Big.Meets.Bigger.3D....
Tomb.Raider.3D.2018.MULTi.CO...
Pacific.Rim.Uprising.3D.2018...
Ready.Player.One.3D.2018.Ger...
Rampage.-.Big.Meets.Bigger.2...
Ready.Player.One.2018.3D.HOU...
Ready.Player.One.2018.3D.HSB...
Ready.Player.One.3D.2018.MUL...
Black.Panther.3D.2018.MULTI....
Black.Panther.3D.HOU.2018.Ge...

Old_Stuff
Meine.liebe.Rabenmutter.germ...
Da.Vincis.Demons.S01.Complet...
Eragon.Das.Vermaechtnis.der....
Adele.und.das.Geheimnis.des....
Die.fabelhafte.Welt.der.Amel...
Haus.des.Geldes.S01.German.M...
How.I.Met.Your.Mother.S01.Ge...
The.Dark.Knight.Rises.2012.M...
Weissensee.S03.2015.GERMAN.C...
Weissensee.S01+S02.2010.GERM...
Die.Unglaublichen.-.The.Incr...
Der.grosse.Trick.1978.German...
Sully.2016.MULTi.COMPLETE.BL...
Tremors.3.Die.neue.Brut.2001...
Die.Indianer.von.Cleveland.2...

Filme
20.Feet.from.Stardom.2013.DO...
A.Thought.of.Ecstasy.2017.Ge...
Push.2009.German.DL.1080p.Bl...
Perfect.Sense.German.DL.1080...
Der.Teufel.ist.eine.Frau.193...
Mothers.Day.Mutter.ist.wiede...
A.Quiet.Place.2018.German.DL...
Prinz.Eisenherz.1954.German....
Phantom.Kommando.1985.German...
Sein.Freund.Jello.1957.Germa...
Sein.Freund.Jello.1957.Germa...
Was.gibts.Neues.Pussy.1965.G...
Aktion.Mutante.1993.German.A...
Brennpunkt.Brooklyn.aka.Fren...
Was.gibts.Neues.Pussy.1965.G...
The.Departed.Open.Matte.2006...
Scouts.vs.Zombies.Handbuch.z...
Das.toedliche.Dreieck.Hanove...
The.Last.Man.On.Earth.S04.Ge...
The.Last.Man.On.Earth.S04.Ge...
Missions.S01.GERMAN.DUBBED.7...
Arrow.S06.GERMAN.DL.1080p.HD...
Arrow.S06.GERMAN.DL.720p.HDT...
Predators.2010.German.DTS.DL...

 
 
Silent.Hill.Open.Matte.2006.German.AC3D.1080p.AmazonHD.x265-FuN
Jahr: 2006
Genre: Abenteuer | Horror | Mystery
Sprache: Deutsch AC3 | Englisch AC3
Laufzeit: 2h 5mn
Bitrate: 3 415 Kbps
Format: MKV
Größe: 2.99 GiB
Release:

Beschreibung:

Mutter Rose (Radha Mitchell) macht sich mit ihrer (Adoptiv)Tochter Sharon (Jodelle Ferland) in Richtung Silent Hill auf. Diese mysteriöse Geisterstadt taucht immer wieder in Visionen des schlafwandelnden Mädchens auf. Nach einem Beinahe-Unfall in der Nähe des Ortes ist die Kleine verschwunden. Mama Rose macht sich auf die Suche in das nebelige Nest, in dem Alptraumkreaturen ihr Unwesen treiben – und aus dem es bald kein Entrinnen mehr gibt. Unterstützt von der Streifenpolizistin Cybil (Lauri Holden) bleibt ihr nichts anderes, als dem höllischen Geheimnis von Silent Hill auf den Grund zu gehen.




Format                                   : Matroska
Format version                           : Version 4 / Version 2
File size                                : 2.99 GiB
Duration                                 : 2h 5mn
Overall bit rate                         : 3 415 Kbps
Encoded date                             : UTC 2018-03-24T16:17:45Z
Writing application                      : HandBrake 1.0.7 2017040900
Writing library                          : Lavf57.7.2

Video
ID                                       : 1
Format                                   : HEVC
Format/Info                              : High Efficiency Video Coding
Format profile                           : Main@L4.0
Codec ID                                 : V_MPEGH/ISO/HEVC
Duration                                 : 2h 5mn
Bit rate                                 : 2 579 Kbps
Width                                    : 1 920 pixels
Height                                   : 1 080 pixels
Display aspect ratio                     : 16:9
Frame rate mode                          : Constant
Frame rate                               : 23.976 fps
Color space                              : YUV
Chroma subsampling                       : 4:2:0
Bit depth                                : 8 bits
Bits/(Pixel*Frame)                       : 0.052
Stream size                              : 2.26 GiB (76%)
Writing library                          : x265 2.1:[Windows][GCC 5.3.1][64 bit] 8bit
Encoding settings                        : wpp / ctu=64 / min-cu-size=8 / max-tu-size=32 / tu-intra-depth=1 / tu-inter-depth=1 / me=1 / subme=2 / merange=57 / no-rect / no-amp / max-merge=2 / temporal-mvp / no-early-skip / rskip / rdpenalty=0 / no-tskip / no-tskip-fast / no-strong-intra-smoothing / no-lossless / no-cu-lossless / no-constrained-intra / no-fast-intra / open-gop / no-temporal-layers / interlace=0 / keyint=240 / min-keyint=24 / scenecut=40 / rc-lookahead=20 / lookahead-slices=6 / bframes=4 / bframe-bias=0 / b-adapt=2 / ref=3 / limit-refs=3 / no-limit-modes / weightp / no-weightb / aq-mode=1 / qg-size=32 / aq-strength=1.00 / cbqpoffs=0 / crqpoffs=0 / rd=3 / psy-rd=2.00 / rdoq-level=0 / psy-rdoq=0.00 / log2-max-poc-lsb=8 / no-rd-refine / signhide / deblock=0:0 / no-sao / no-sao-non-deblock / b-pyramid / cutree / no-intra-refresh / rc=crf / crf=23.0 / qcomp=0.60 / qpmin=0 / qpmax=69 / qpstep=4 / ipratio=1.40 / pbratio=1.30
Default                                  : Yes
Forced                                   : No

Audio #1
ID                                       : 2
Format                                   : AC-3
Format/Info                              : Audio Coding 3
Mode extension                           : CM (complete main)
Format settings, Endianness              : Big
Codec ID                                 : A_AC3
Duration                                 : 2h 5mn
Bit rate mode                            : Constant
Bit rate                                 : 384 Kbps
Channel(s)                               : 6 channels
Channel positions                        : Front: L C R, Side: L R, LFE
Sampling rate                            : 48.0 KHz
Bit depth                                : 16 bits
Compression mode                         : Lossy
Delay relative to video                  : 245ms
Stream size                              : 345 MiB (11%)
Title                                    : Surround
Language                                 : German
Default                                  : Yes
Forced                                   : No

Audio #2
ID                                       : 3
Format                                   : AC-3
Format/Info                              : Audio Coding 3
Mode extension                           : CM (complete main)
Format settings, Endianness              : Big
Codec ID                                 : A_AC3
Duration                                 : 2h 5mn
Bit rate mode                            : Constant
Bit rate                                 : 384 Kbps
Channel(s)                               : 6 channels
Channel positions                        : Front: L C R, Side: L R, LFE
Sampling rate                            : 48.0 KHz
Bit depth                                : 16 bits
Compression mode                         : Lossy
Delay relative to video                  : -2ms
Stream size                              : 345 MiB (11%)
Title                                    : Surround
Language                                 : English
Default                                  : No
Forced                                   : No

Text #1
ID                                       : 4
Format                                   : PGS
Codec ID                                 : S_HDMV/PGS
Codec ID/Info                            : The same subtitle format used on BDs/HD-DVDs
Language                                 : German
Default                                  : No
Forced                                   : No

Text #2
ID                                       : 5
Format                                   : PGS
Codec ID                                 : S_HDMV/PGS
Codec ID/Info                            : The same subtitle format used on BDs/HD-DVDs
Language                                 : English
Default                                  : No
Forced                                   : No





Download:
Share Online Share OnlineShare OnlineShare Online
 

Kommentare