DNS SERVER AENDERNum der staatlichen Zensur zu umgehen. Sollten wir von eurem Provider geseprrt werden, nutzt den TOR BROWSER oder ändert euren DNS SERVER.

Filmwünsche können bei uns im Forum abgegeben werden

Wir Speichern Nicht




 
 
 
Top Releases
Die.Verlegerin.2017.MULTI.CO...
Cargo.2017.German.AC3D.DL.10...
The.Secret.Scripture.2016.Ge...
Honig.im.Kopf.2014.German.AC...
The.Ballad.of.Lefty.Brown.20...
Loving.Vincent.2017.MULTi.CO...
The.Secret.Scripture.2016.Ge...
The.Ballad.of.Lefty.Brown.20...
The.Ballad.of.Lefty.Brown.20...
Loving.Vincent.2017.German.7...

Cinedubs
Deadpool.2.2018.GERMAN.720p....
Das.Zeitraetsel.2018.German....
Das.Zeitraetsel.2018.German....
Death.Wish.German.DL.AC3.Dub...
Death.Wish.German.DL.AC3.Dub...
Death.Wish.German.DL.AC3.Dub...
Death.Wish.German.DL.AC3.Dub...
Der.Buchladen.der.Florence.G...
Der.Buchladen.der.Florence.G...
Pacific.Rim.2.Uprising.Germa...

Neuerscheinungen 2017-18
Tango.One.2018.DUAL.COMPLETE...
Tango.One.2018.German.720p.B...
Tango.One.2018.German.DL.108...
Ibiza.2018.German.Dubbed.DL....
Topkapi.1964.MULTi.COMPLETE....
Der.grosse.Eisenbahnraub.The...
RED.2.Noch.Aelter.Haerter.Be...
RED.2010.MULTi.COMPLETE.UHD....
Massai.Apache.1954.MULTi.COM...
Tad.Jones.und.das.Geheimnis....

XXX
BlackedRaw.18.05.17.Adriana....
BigButtsLikeItBig.18.05.15.A...
BrazzersExxtra.18.05.15.Nico...
CherryPimps.18.05.16.Portia....
BangBus.18.05.16.Maya.Bijou....
ATKGirlfriends.18.05.16.Chlo...
Beauty-Angels.18.05.14.Li.In...
BoxTruckSex.18.05.14.Victori...
ClaudiaMarie.18.05.16.Big.Ti...
Bang.Gonzo.18.05.16.Angel.Sm...
BigGulpGirls.18.05.16.Jay.Ta...
CherryPimps.18.05.15.Jillian...
BrattySis.18.05.18.Elsa.Jean...
BlowBangGirls.18.05.11.Shelb...
AllOver30.18.05.15.Melody.Cu...
Aziani.18.05.18.Carmin.Blue....
1000Facials.18.05.14.Ornella...
Aziani.18.05.18.Brandi.Mae.A...
AllOver30.18.05.15.Tina.John...
AllGirlMassage.18.05.14.Sere...

3D
Zombies.Ueberlebe.die.Untote...
Norwegen.3D.2013.GERMAN.DL.D...
Norwegen.3D.2013.GERMAN.DOKU...
Jumanji.Willkommen.im.Dschun...
Jumanji.Welcome.To.The.Jungl...
Abraham.Lincoln.Vampire.Hunt...
Norwegen.3D.2013.MULTi.COMPL...
Star.Wars.Episode.VIII.Die.l...
Star.Wars.Episode.VIII.Die.l...
Star.Wars.Episode.VIII.Die.l...
Jumanji.Welcome.To.The.Jungl...
Star.Wars.The.Last.Jedi.2017...
Final.Storm.Der.Untergang.de...
Final.Storm.Der.Untergang.de...
Jumanji.Willkommen.im.Dschun...

Old_Stuff
Die.Indianer.von.Cleveland.2...
Dealt.2017.1080p.AMZN.WEB-DL...
Dealt.2017.720p.AMZN.WEB-DL....
Roter.Staub.aka.The.Brave.On...
Roter.Staub.aka.The.Brave.On...
Magic.in.the.Moonlight.2014....
The.LEGO.Ninjago.Movie.2017....
Zeit.der.Zaertlichkeit.1983....
Zeit.der.Zaertlichkeit.1983....
Regular.Show.S01.1080p.BluRa...
Ostfriesisch.fuer.Anfaenger....
Planet.der.Affen.Prevolution...
Final.Fantasy.VII.Advent.Chi...
City.Slickers.2.1994.German....
R.I.P.D.Rest.in.Peace.Depart...

Filme
Jurassic.World.2015.German.D...
Maze.Runner.Die.Auserwaehlte...
Der.letzte.Tempelritter.2011...
Jurassic.Park.1993.German.Du...
Ibiza.2018.German.Dubbed.DL....
TRaumschiff.Surprise.Periode...
Blues.Brothers.Extended.Vers...
Blues.Brothers.2000.1998.Ger...
Die.Verlegerin.2017.German.D...
The.Last.New.Yorker.2007.Ger...
The.Haunting.-.Das.Geistersc...
3.Ninja.Kids.UNCUT.1992.Germ...
Fauda.S02.COMPLETE.German.DD...
Die.Hochzeits.Crasher.UNCORK...
Fauda.S02.COMPLETE.German.DD...
Chicago.Med.S03.GERMAN.720p....
Marvels.Runaways.S01.German....
Marvels.Runaways.S01.German....
The.Blacklist.S05.GERMAN.DUB...
The.Blacklist.S05.GERMAN.DUB...
The.Flash.2014.S04.GERMAN.72...
Gotham.S04.GERMAN.720p.HDTV....
Bullyparade.Der.Film.2017.Ge...
Matrix.1999.Remastered.Germa...

 
 
Les.Miserables.1998.German.AC3D.DL.1080p.US.BluRay.x265-FuN
Jahr: 1998
Genre: Krimi | Drama | History
Sprache: Deutsch AC3 | Englisch AC3
Laufzeit: 2h 13mn
Bitrate: 1 859 Kbps
Format: MKV
Größe: 1.74 GiB
Release:

Beschreibung:

Düsteres 19. Jahrhundert: Das Jahrhundert von satten Industriellen auf der einen Seite und einem traurigen Industrieproletariat auf der anderen Seite. Der Protagonist Valjean ist wegen des Diebstahls von Brot ins Gefängnis gekommen und hat dort 19 Jahre lang eingesessen. Nun, da er wieder in Freiheit ist, muß er erst einmal wieder Mensch werden. Ein Bischoff der ihm Zuflucht gewährt, ist einer der Wenigen, die Valjean ein zweite Chance geben. Dennoch gelingt es Valjean sein früheres Leben zurückzulassen, und er arbeitet sich hoch, bis er Bürgermeister einer kleinen Stadt wird. In Fantine die wegen ihrer unehelichen Tochter ihre Anstellung verliert und als Prostituierte ihre Tagewerk verrichte muss, findet er seine große Liebe. Doch die Vergangenheit holt Valjean ein - in Gestalt des Polizeiinspektors Javert der Valjean wiedererkennt und alles daran setzt, in wieder ins Gefängnis zu bringen.




Format                                   : Matroska
Format version                           : Version 4 / Version 2
File size                                : 1.74 GiB
Duration                                 : 2h 13mn
Overall bit rate                         : 1 859 Kbps
Encoded date                             : UTC 2018-02-21T08:21:41Z
Writing application                      : HandBrake 1.0.7 2017040900
Writing library                          : Lavf57.7.2

Video
ID                                       : 1
Format                                   : HEVC
Format/Info                              : High Efficiency Video Coding
Format profile                           : Main@L4.0
Codec ID                                 : V_MPEGH/ISO/HEVC
Duration                                 : 2h 13mn
Bit rate                                 : 1 054 Kbps
Width                                    : 1 920 pixels
Height                                   : 800 pixels
Display aspect ratio                     : 2.40:1
Frame rate mode                          : Constant
Frame rate                               : 23.976 fps
Color space                              : YUV
Chroma subsampling                       : 4:2:0
Bit depth                                : 8 bits
Bits/(Pixel*Frame)                       : 0.029
Stream size                              : 1 009 MiB (57%)
Writing library                          : x265 2.1:[Windows][GCC 5.3.1][64 bit] 8bit
Encoding settings                        : wpp / ctu=64 / min-cu-size=8 / max-tu-size=32 / tu-intra-depth=1 / tu-inter-depth=1 / me=1 / subme=2 / merange=57 / no-rect / no-amp / max-merge=2 / temporal-mvp / no-early-skip / rskip / rdpenalty=0 / no-tskip / no-tskip-fast / no-strong-intra-smoothing / no-lossless / no-cu-lossless / no-constrained-intra / no-fast-intra / open-gop / no-temporal-layers / interlace=0 / keyint=240 / min-keyint=24 / scenecut=40 / rc-lookahead=20 / lookahead-slices=5 / bframes=4 / bframe-bias=0 / b-adapt=2 / ref=3 / limit-refs=3 / no-limit-modes / weightp / no-weightb / aq-mode=1 / qg-size=32 / aq-strength=1.00 / cbqpoffs=0 / crqpoffs=0 / rd=3 / psy-rd=2.00 / rdoq-level=0 / psy-rdoq=0.00 / log2-max-poc-lsb=8 / no-rd-refine / signhide / deblock=0:0 / no-sao / no-sao-non-deblock / b-pyramid / cutree / no-intra-refresh / rc=crf / crf=23.0 / qcomp=0.60 / qpmin=0 / qpmax=69 / qpstep=4 / ipratio=1.40 / pbratio=1.30
Default                                  : Yes
Forced                                   : No

Audio #1
ID                                       : 2
Format                                   : AC-3
Format/Info                              : Audio Coding 3
Mode extension                           : CM (complete main)
Format settings, Endianness              : Big
Codec ID                                 : A_AC3
Duration                                 : 2h 13mn
Bit rate mode                            : Constant
Bit rate                                 : 384 Kbps
Channel(s)                               : 6 channels
Channel positions                        : Front: L C R, Side: L R, LFE
Sampling rate                            : 48.0 KHz
Bit depth                                : 16 bits
Compression mode                         : Lossy
Delay relative to video                  : -5ms
Stream size                              : 368 MiB (21%)
Title                                    : Surround
Language                                 : German
Default                                  : Yes
Forced                                   : No

Audio #2
ID                                       : 3
Format                                   : AC-3
Format/Info                              : Audio Coding 3
Mode extension                           : CM (complete main)
Format settings, Endianness              : Big
Codec ID                                 : A_AC3
Duration                                 : 2h 13mn
Bit rate mode                            : Constant
Bit rate                                 : 384 Kbps
Channel(s)                               : 6 channels
Channel positions                        : Front: L C R, Side: L R, LFE
Sampling rate                            : 48.0 KHz
Bit depth                                : 16 bits
Compression mode                         : Lossy
Delay relative to video                  : -5ms
Stream size                              : 368 MiB (21%)
Title                                    : Surround
Language                                 : English
Default                                  : No
Forced                                   : No

Text
ID                                       : 4
Format                                   : PGS
Codec ID                                 : S_HDMV/PGS
Codec ID/Info                            : The same subtitle format used on BDs/HD-DVDs
Language                                 : English
Default                                  : No
Forced                                   : No



Download:
Share Online Share OnlineShare OnlineShare Online
 

Kommentare