DNS SERVER AENDERNum der staatlichen Zensur zu umgehen. Sollten wir von eurem Provider geseprrt werden, nutzt den TOR BROWSER oder ändert euren DNS SERVER.

Filmwünsche können bei uns im Forum abgegeben werden

Wir Speichern Nicht




 
 
 
Top Releases
Die.Verlegerin.2017.MULTI.CO...
Cargo.2017.German.AC3D.DL.10...
The.Secret.Scripture.2016.Ge...
Honig.im.Kopf.2014.German.AC...
The.Ballad.of.Lefty.Brown.20...
Loving.Vincent.2017.MULTi.CO...
The.Secret.Scripture.2016.Ge...
The.Ballad.of.Lefty.Brown.20...
The.Ballad.of.Lefty.Brown.20...
Loving.Vincent.2017.German.7...

Cinedubs
Deadpool.2.2018.GERMAN.720p....
Das.Zeitraetsel.2018.German....
Das.Zeitraetsel.2018.German....
Death.Wish.German.DL.AC3.Dub...
Death.Wish.German.DL.AC3.Dub...
Death.Wish.German.DL.AC3.Dub...
Death.Wish.German.DL.AC3.Dub...
Der.Buchladen.der.Florence.G...
Der.Buchladen.der.Florence.G...
Pacific.Rim.2.Uprising.Germa...

Neuerscheinungen 2017-18
Tango.One.2018.DUAL.COMPLETE...
Tango.One.2018.German.720p.B...
Tango.One.2018.German.DL.108...
Ibiza.2018.German.Dubbed.DL....
Topkapi.1964.MULTi.COMPLETE....
Der.grosse.Eisenbahnraub.The...
RED.2.Noch.Aelter.Haerter.Be...
RED.2010.MULTi.COMPLETE.UHD....
Massai.Apache.1954.MULTi.COM...
Tad.Jones.und.das.Geheimnis....

XXX
BigButtsLikeItBig.18.05.15.A...
BrazzersExxtra.18.05.15.Nico...
CherryPimps.18.05.16.Portia....
BangBus.18.05.16.Maya.Bijou....
ATKGirlfriends.18.05.16.Chlo...
Beauty-Angels.18.05.14.Li.In...
BoxTruckSex.18.05.14.Victori...
ClaudiaMarie.18.05.16.Big.Ti...
Bang.Gonzo.18.05.16.Angel.Sm...
BigGulpGirls.18.05.16.Jay.Ta...
CherryPimps.18.05.15.Jillian...
BrattySis.18.05.18.Elsa.Jean...
BlowBangGirls.18.05.11.Shelb...
AllOver30.18.05.15.Melody.Cu...
Aziani.18.05.18.Carmin.Blue....
1000Facials.18.05.14.Ornella...
Aziani.18.05.18.Brandi.Mae.A...
AllOver30.18.05.15.Tina.John...
AllGirlMassage.18.05.14.Sere...
AssTraffic.18.05.16.Selvaggi...

3D
Zombies.Ueberlebe.die.Untote...
Norwegen.3D.2013.GERMAN.DL.D...
Norwegen.3D.2013.GERMAN.DOKU...
Jumanji.Willkommen.im.Dschun...
Jumanji.Welcome.To.The.Jungl...
Abraham.Lincoln.Vampire.Hunt...
Norwegen.3D.2013.MULTi.COMPL...
Star.Wars.Episode.VIII.Die.l...
Star.Wars.Episode.VIII.Die.l...
Star.Wars.Episode.VIII.Die.l...
Jumanji.Welcome.To.The.Jungl...
Star.Wars.The.Last.Jedi.2017...
Final.Storm.Der.Untergang.de...
Final.Storm.Der.Untergang.de...
Jumanji.Willkommen.im.Dschun...

Old_Stuff
Die.Indianer.von.Cleveland.2...
Dealt.2017.1080p.AMZN.WEB-DL...
Dealt.2017.720p.AMZN.WEB-DL....
Roter.Staub.aka.The.Brave.On...
Roter.Staub.aka.The.Brave.On...
Magic.in.the.Moonlight.2014....
The.LEGO.Ninjago.Movie.2017....
Zeit.der.Zaertlichkeit.1983....
Zeit.der.Zaertlichkeit.1983....
Regular.Show.S01.1080p.BluRa...
Ostfriesisch.fuer.Anfaenger....
Planet.der.Affen.Prevolution...
Final.Fantasy.VII.Advent.Chi...
City.Slickers.2.1994.German....
R.I.P.D.Rest.in.Peace.Depart...

Filme
Jurassic.World.2015.German.D...
Maze.Runner.Die.Auserwaehlte...
Der.letzte.Tempelritter.2011...
Jurassic.Park.1993.German.Du...
Ibiza.2018.German.Dubbed.DL....
TRaumschiff.Surprise.Periode...
Blues.Brothers.Extended.Vers...
Blues.Brothers.2000.1998.Ger...
Die.Verlegerin.2017.German.D...
The.Last.New.Yorker.2007.Ger...
The.Haunting.-.Das.Geistersc...
3.Ninja.Kids.UNCUT.1992.Germ...
Fauda.S02.COMPLETE.German.DD...
Die.Hochzeits.Crasher.UNCORK...
Fauda.S02.COMPLETE.German.DD...
Chicago.Med.S03.GERMAN.720p....
Marvels.Runaways.S01.German....
Marvels.Runaways.S01.German....
The.Blacklist.S05.GERMAN.DUB...
The.Blacklist.S05.GERMAN.DUB...
The.Flash.2014.S04.GERMAN.72...
Gotham.S04.GERMAN.720p.HDTV....
Bullyparade.Der.Film.2017.Ge...
Matrix.1999.Remastered.Germa...

 
 
Korczak.1990.German.1080p.BluRay.x264-SPiCY
Jahr: 1990
Genre: Biographie | Drama
Sprache: Deutsch DTS
Laufzeit: 1h 57mn
Bitrate: 10.6 Mbps
Format: MKV
Größe: 8.75 GiB
Release:

Beschreibung:

Der Lebens- und Leidensweg des polnisch-jüdischen Kinderarztes, Schriftstellers und Pädagogen Janusz Korczak und seiner 200 Waisenkinder im Warschauer Ghetto. Das eindrucksvolle Porträt eines Menschen, der die ihm anvertrauten Kinder selbst in schwierigster Zeit zu Gerechtigkeit, Brüderlichkeit und Toleranz erzieht. ‘Die Lebenswege großer Menschen gleichen Legenden – sie sind beschwerlich, aber schön’, schrieb Korczak. Am 6. August 1942 wurde sein Leben zur Legende, als ihn die SS zwang, ‘seine’ Kinder hinter der Fahne mit dem Davidstern zum Zug nach Treblinka zu führen. Er verzichtete darauf, sein eigenes Leben zu retten, und starb gemeinsam mit ihnen.



Complete name                            : spy-korczak-1080p.mkv
Format                                   : Matroska
Format version                           : Version 4 / Version 2
File size                                : 8.75 GiB
Duration                                 : 1h 57mn
Overall bit rate                         : 10.6 Mbps
Encoded date                             : UTC 2018-05-16 11:27:26
Writing application                      : mkvmerge v9.0.1 ('Obstacles') 64bit
Writing library                          : libebml v1.3.3 + libmatroska v1.4.4
DURATION                                 : 01:57:44.427000000
NUMBER_OF_FRAMES                         : 662290
NUMBER_OF_BYTES                          : 1332527480
_STATISTICS_WRITING_APP                  : mkvmerge v9.0.1 ('Obstacles') 64bit
_STATISTICS_WRITING_DATE_UTC             : 2018-05-16 11:27:26
_STATISTICS_TAGS                         : BPS DURATION NUMBER_OF_FRAMES NUMBER_OF_BYTES

Video
ID                                       : 1
Format                                   : AVC
Format/Info                              : Advanced Video Codec
Format profile                           : High@L4.1
Format settings, CABAC                   : Yes
Format settings, ReFrames                : 4 frames
Codec ID                                 : V_MPEG4/ISO/AVC
Duration                                 : 1h 57mn
Bit rate                                 : 9 125 Kbps
Width                                    : 1 760 pixels
Height                                   : 1 080 pixels
Display aspect ratio                     : 16:10
Frame rate mode                          : Constant
Frame rate                               : 23.976 fps
Color space                              : YUV
Chroma subsampling                       : 4:2:0
Bit depth                                : 8 bits
Scan type                                : Progressive
Bits/(Pixel*Frame)                       : 0.200
Stream size                              : 7.33 GiB (84%)
Writing library                          : x264 core 155 r2901 7d0ff22
Encoding settings                        : cabac=1 / ref=4 / deblock=1:-1:-1 / analyse=0x3:0x113 / me=umh / subme=7 / psy=1 / psy_rd=1.00:0.00 / mixed_ref=1 / me_range=16 / chroma_me=1 / trellis=1 / 8x8dct=1 / cqm=0 / deadzone=21,11 / fast_pskip=0 / chroma_qp_offset=-2 / threads=12 / lookahead_threads=2 / sliced_threads=0 / nr=0 / decimate=1 / interlaced=0 / bluray_compat=0 / constrained_intra=0 / bframes=3 / b_pyramid=2 / b_adapt=1 / b_bias=0 / direct=3 / weightb=1 / open_gop=0 / weightp=2 / keyint=250 / keyint_min=23 / scenecut=40 / intra_refresh=0 / rc_lookahead=40 / rc=2pass / mbtree=1 / bitrate=9125 / ratetol=1.0 / qcomp=0.60 / qpmin=0 / qpmax=69 / qpstep=4 / cplxblur=20.0 / qblur=0.5 / ip_ratio=1.40 / aq=1:1.00
Default                                  : Yes
Forced                                   : No

Audio
ID                                       : 2
Format                                   : DTS
Format/Info                              : Digital Theater Systems
Mode                                     : 16
Format settings, Endianness              : Big
Codec ID                                 : A_DTS
Duration                                 : 1h 57mn
Bit rate mode                            : Constant
Bit rate                                 : 1 509 Kbps
Channel(s)                               : 2 channels
Channel positions                        : Front: L R
Sampling rate                            : 48.0 KHz
Bit depth                                : 24 bits
Compression mode                         : Lossy
Stream size                              : 1.24 GiB (14%)
Language                                 : German
Default                                  : Yes
Forced                                   : No


Download:
Share Online Share OnlineShare OnlineShare Online
 

Kommentare