DNS SERVER AENDERNum der staatlichen Zensur zu umgehen. Sollten wir von eurem Provider geseprrt werden, nutzt den TOR BROWSER oder ändert euren DNS SERVER.

Filmwünsche können bei uns im Forum abgegeben werden

Wir Speichern Nicht




 
 
 
Top Releases
Die.Verlegerin.2017.MULTI.CO...
Cargo.2017.German.AC3D.DL.10...
The.Secret.Scripture.2016.Ge...
Honig.im.Kopf.2014.German.AC...
The.Ballad.of.Lefty.Brown.20...
Loving.Vincent.2017.MULTi.CO...
The.Secret.Scripture.2016.Ge...
The.Ballad.of.Lefty.Brown.20...
The.Ballad.of.Lefty.Brown.20...
Loving.Vincent.2017.German.7...

Cinedubs
Deadpool.2.2018.GERMAN.720p....
Das.Zeitraetsel.2018.German....
Das.Zeitraetsel.2018.German....
Death.Wish.German.DL.AC3.Dub...
Death.Wish.German.DL.AC3.Dub...
Death.Wish.German.DL.AC3.Dub...
Death.Wish.German.DL.AC3.Dub...
Der.Buchladen.der.Florence.G...
Der.Buchladen.der.Florence.G...
Pacific.Rim.2.Uprising.Germa...

Neuerscheinungen 2017-18
Tango.One.2018.DUAL.COMPLETE...
Tango.One.2018.German.720p.B...
Tango.One.2018.German.DL.108...
Ibiza.2018.German.Dubbed.DL....
Topkapi.1964.MULTi.COMPLETE....
Der.grosse.Eisenbahnraub.The...
RED.2.Noch.Aelter.Haerter.Be...
RED.2010.MULTi.COMPLETE.UHD....
Massai.Apache.1954.MULTi.COM...
Tad.Jones.und.das.Geheimnis....

XXX
BlackedRaw.18.05.17.Adriana....
BigButtsLikeItBig.18.05.15.A...
BrazzersExxtra.18.05.15.Nico...
CherryPimps.18.05.16.Portia....
BangBus.18.05.16.Maya.Bijou....
ATKGirlfriends.18.05.16.Chlo...
Beauty-Angels.18.05.14.Li.In...
BoxTruckSex.18.05.14.Victori...
ClaudiaMarie.18.05.16.Big.Ti...
Bang.Gonzo.18.05.16.Angel.Sm...
BigGulpGirls.18.05.16.Jay.Ta...
CherryPimps.18.05.15.Jillian...
BrattySis.18.05.18.Elsa.Jean...
BlowBangGirls.18.05.11.Shelb...
AllOver30.18.05.15.Melody.Cu...
Aziani.18.05.18.Carmin.Blue....
1000Facials.18.05.14.Ornella...
Aziani.18.05.18.Brandi.Mae.A...
AllOver30.18.05.15.Tina.John...
AllGirlMassage.18.05.14.Sere...

3D
Zombies.Ueberlebe.die.Untote...
Norwegen.3D.2013.GERMAN.DL.D...
Norwegen.3D.2013.GERMAN.DOKU...
Jumanji.Willkommen.im.Dschun...
Jumanji.Welcome.To.The.Jungl...
Abraham.Lincoln.Vampire.Hunt...
Norwegen.3D.2013.MULTi.COMPL...
Star.Wars.Episode.VIII.Die.l...
Star.Wars.Episode.VIII.Die.l...
Star.Wars.Episode.VIII.Die.l...
Jumanji.Welcome.To.The.Jungl...
Star.Wars.The.Last.Jedi.2017...
Final.Storm.Der.Untergang.de...
Final.Storm.Der.Untergang.de...
Jumanji.Willkommen.im.Dschun...

Old_Stuff
Die.Indianer.von.Cleveland.2...
Dealt.2017.1080p.AMZN.WEB-DL...
Dealt.2017.720p.AMZN.WEB-DL....
Roter.Staub.aka.The.Brave.On...
Roter.Staub.aka.The.Brave.On...
Magic.in.the.Moonlight.2014....
The.LEGO.Ninjago.Movie.2017....
Zeit.der.Zaertlichkeit.1983....
Zeit.der.Zaertlichkeit.1983....
Regular.Show.S01.1080p.BluRa...
Ostfriesisch.fuer.Anfaenger....
Planet.der.Affen.Prevolution...
Final.Fantasy.VII.Advent.Chi...
City.Slickers.2.1994.German....
R.I.P.D.Rest.in.Peace.Depart...

Filme
Jurassic.World.2015.German.D...
Maze.Runner.Die.Auserwaehlte...
Der.letzte.Tempelritter.2011...
Jurassic.Park.1993.German.Du...
Ibiza.2018.German.Dubbed.DL....
TRaumschiff.Surprise.Periode...
Blues.Brothers.Extended.Vers...
Blues.Brothers.2000.1998.Ger...
Die.Verlegerin.2017.German.D...
The.Last.New.Yorker.2007.Ger...
The.Haunting.-.Das.Geistersc...
3.Ninja.Kids.UNCUT.1992.Germ...
Fauda.S02.COMPLETE.German.DD...
Die.Hochzeits.Crasher.UNCORK...
Fauda.S02.COMPLETE.German.DD...
Chicago.Med.S03.GERMAN.720p....
Marvels.Runaways.S01.German....
Marvels.Runaways.S01.German....
The.Blacklist.S05.GERMAN.DUB...
The.Blacklist.S05.GERMAN.DUB...
The.Flash.2014.S04.GERMAN.72...
Gotham.S04.GERMAN.720p.HDTV....
Bullyparade.Der.Film.2017.Ge...
Matrix.1999.Remastered.Germa...

 
 
Die.dunkelste.Stunde.2017.German.720p.BluRay.x264-ENCOUNTERS
Jahr: 2017
Genre: Biography | Drama | History
Sprache: Deutsch AC3
Laufzeit: 2h 5mn
Bitrate: 2 292 Kbps
Format: MKV
Größe: 2.00 GiB
Release:

Beschreibung:

Erst wenige Tage im Amt, steht der neue britische Premierminister als Nachfolger von Neville Chamberlain (Ronald Pickup) 1940 vor einer Mammutaufgabe. Die gegnerische Streitmacht stürmt West-Europa, die Niederlage gegen Nazi-Deutschland ist beinahe schon besiegelt – also steht Winston Churchill (Gary Oldman) unter Druck, einen Frieden mit Adolf Hitler zu verhandeln, der Großbritannien zu einer Marionette des Dritten Reiches machen würde. Während die britische Armee in Dünkirchen strandet, beweist Churchill Courage und kämpft weiter. In seiner wohl dunkelsten Stunde als Premier muss er den baldigen Einmarsch der Nazis verhindern, sich gegenüber seiner eigenen Partei und dem skeptischen König George VI. (Ben Mendelsohn) durchsetzen, seine Nation vereinen, kurz: den Lauf der Geschichte entscheidend ändern…



Complete name                            : encounters-didust_720p.mkv
Format                                   : Matroska
Format version                           : Version 4 / Version 2
File size                                : 2.00 GiB
Duration                                 : 2h 5mn
Overall bit rate                         : 2 292 Kbps
Encoded date                             : UTC 2018-05-17 16:27:58
Writing application                      : mkvmerge v19.0.0 ('Brave Captain') 64-bit
Writing library                          : libebml v1.3.5 + libmatroska v1.4.8
DURATION                                 : 02:03:40.371000000
NUMBER_OF_FRAMES                         : 44
NUMBER_OF_BYTES                          : 1204
_STATISTICS_WRITING_APP                  : mkvmerge v19.0.0 ('Brave Captain') 64-bit
_STATISTICS_WRITING_DATE_UTC             : 2018-05-17 16:27:58
_STATISTICS_TAGS                         : BPS DURATION NUMBER_OF_FRAMES NUMBER_OF_BYTES

Video
ID                                       : 1
Format                                   : AVC
Format/Info                              : Advanced Video Codec
Format profile                           : High@L4.1
Format settings, CABAC                   : Yes
Format settings, ReFrames                : 5 frames
Codec ID                                 : V_MPEG4/ISO/AVC
Duration                                 : 2h 5mn
Bit rate                                 : 1 606 Kbps
Width                                    : 1 288 pixels
Height                                   : 696 pixels
Display aspect ratio                     : 1.85:1
Original display aspect ratio            : 1.85:1
Frame rate mode                          : Constant
Frame rate                               : 23.976 fps
Color space                              : YUV
Chroma subsampling                       : 4:2:0
Bit depth                                : 8 bits
Scan type                                : Progressive
Bits/(Pixel*Frame)                       : 0.075
Stream size                              : 1.41 GiB (70%)
Title                                    : encounters-didust_720p
Writing library                          : x264 core 155 r2901 7d0ff22
Encoding settings                        : cabac=1 / ref=5 / deblock=1:-1:-1 / analyse=0x3:0x133 / me=umh / subme=7 / psy=1 / psy_rd=1.00:0.15 / mixed_ref=1 / me_range=16 / chroma_me=1 / trellis=1 / 8x8dct=1 / cqm=0 / deadzone=21,11 / fast_pskip=0 / chroma_qp_offset=-3 / threads=22 / lookahead_threads=3 / sliced_threads=0 / nr=0 / decimate=1 / interlaced=0 / bluray_compat=0 / constrained_intra=0 / bframes=3 / b_pyramid=2 / b_adapt=1 / b_bias=0 / direct=1 / weightb=1 / open_gop=0 / weightp=2 / keyint=250 / keyint_min=23 / scenecut=40 / intra_refresh=0 / rc_lookahead=40 / rc=crf / mbtree=1 / crf=20.0 / qcomp=0.60 / qpmin=0 / qpmax=69 / qpstep=4 / ip_ratio=1.40 / aq=1:1.00
Default                                  : Yes
Forced                                   : No

Audio
ID                                       : 2
Format                                   : AC-3
Format/Info                              : Audio Coding 3
Mode extension                           : CM (complete main)
Format settings, Endianness              : Big
Codec ID                                 : A_AC3
Duration                                 : 2h 5mn
Bit rate mode                            : Constant
Bit rate                                 : 640 Kbps
Channel(s)                               : 6 channels
Channel positions                        : Front: L C R, Side: L R, LFE
Sampling rate                            : 48.0 KHz
Bit depth                                : 16 bits
Compression mode                         : Lossy
Stream size                              : 573 MiB (28%)
Title                                    : German AC3 5.1 @ 640 Kbps
Language                                 : German
Default                                  : Yes
Forced                                   : No

Text
ID                                       : 3
Format                                   : UTF-8
Codec ID                                 : S_TEXT/UTF8
Codec ID/Info                            : UTF-8 Plain Text
Title                                    : ger_forced.srt
Language                                 : German
Default                                  : Yes
Forced                                   : Yes


Download:
Share Online Share OnlineShare OnlineShare Online
 

Kommentare