DNS SERVER AENDERNum der staatlichen Zensur zu umgehen. Sollten wir von eurem Provider geseprrt werden, nutzt den TOR BROWSER oder ändert euren DNS SERVER.

Filmwünsche können bei uns im Forum abgegeben werden

Wir Speichern Nicht




 
 
 
Top Releases
Midnight.Sun.Alles.fuer.dich...
Familiye.2017.German.AC3.108...
Gringo.2018.German.DL.1080p....
Deadpool.2.Super.Duper.Cut.2...
Deadpool.2.Super.Duper.Cut....
Deadpool.2.Super.Duper.Cut.2...
Thelma.2017.German.AC3.DL.10...
Familiye.2017.German.1080p.B...
Familiye.2017.German.720p.Bl...
Midnight.Sun.Alles.fuer.dich...

Cinedubs
Breaking.In.2018.UNRATED.GER...
Breaking.In.2018.UNRATED.GER...
Breaking.In.2018.UNRATED.GER...
Die.Farbe.des.Horizonts.2018...
Die.Farbe.des.Horizonts.2018...
Catch.Me.2018.GERMAN.DL.AC3....
Catch.Me.2018.GERMAN.DL.AC3....
Skyscraper.2018.German.AC3LD...
Skyscraper.2018.GERMAN.DL.AC...
Der.Dolmetscher.German.AC3.7...

Neuerscheinungen 2017-18
Wilson.Der.Weltverbesserer.2...
Wilson.Der.Weltverbesserer.2...
Das.Zeitraetsel.2018.German....
Das.Zeitraetsel.2018.German....
Familiye.2017.GERMAN.COMPLET...
Lazer.Team.2015.DC.German.DL...
Lazer.Team.2015.DC.German.72...
Badlands.1973.MULTi.COMPLETE...
A.Thought.of.Ecstasy.2017.MU...
Criminal.Squad.THEATRICAL.20...

XXX
FuckingOffice.18.08.13.Naomi...
DateSlam.18.08.13.Miyuki.Asi...
EvilAngel.Anal.Players.5.XXX...
EvilAngel.18.07.05.Maddy.Ore...
GirlsOutWest.18.08.14.Kristi...
GirlsOutWest.18.08.13.Rose.B...
EvilAngel.18.08.13.Victoria....
Cosmid.18.08.13.Teresa.Kurta...
EuroGirlsOnGirls.18.08.13.In...
FemJoy.18.08.14.Cosmo.Summer...
FTVMilfs.18.08.14.Krissy.Lyn...
FitnessRooms.18.08.13.Mia.Na...
DaughterSwap.18.07.14.Skylar...
DevilsFilm.18.08.13.Aaliyah....
FutileStruggles.Backyard.Bon...
FakeDrivingSchool.18.08.13.G...
DigitalPlayground.18.08.13.C...
DevilsFilm.18.08.14.Sloan.Ha...
FutileStruggles.Clear.Strap....
GirlsOutWest.18.08.12.Jessie...

3D
Avengers.Infinity.War.3D.201...
Rampage.Big.Meets.Bigger.3D....
Rampage.Big.Meets.Bigger.3D....
Rampage.Big.Meets.Bigger.3D....
Winter.Games.3D.2013.DUAL.CO...
Tomb.Raider.3D.2018.German.7...
Rampage.Big.Meets.Bigger.3D....
Rampage.Big.Meets.Bigger.3D....
Tomb.Raider.3D.2018.MULTi.CO...
Pacific.Rim.Uprising.3D.2018...
Ready.Player.One.3D.2018.Ger...
Rampage.-.Big.Meets.Bigger.2...
Ready.Player.One.2018.3D.HOU...
Ready.Player.One.2018.3D.HSB...
Ready.Player.One.3D.2018.MUL...

Old_Stuff
Meine.liebe.Rabenmutter.germ...
Da.Vincis.Demons.S01.Complet...
Eragon.Das.Vermaechtnis.der....
Adele.und.das.Geheimnis.des....
Die.fabelhafte.Welt.der.Amel...
Haus.des.Geldes.S01.German.M...
How.I.Met.Your.Mother.S01.Ge...
The.Dark.Knight.Rises.2012.M...
Weissensee.S03.2015.GERMAN.C...
Weissensee.S01+S02.2010.GERM...
Die.Unglaublichen.-.The.Incr...
Der.grosse.Trick.1978.German...
Sully.2016.MULTi.COMPLETE.BL...
Tremors.3.Die.neue.Brut.2001...
Die.Indianer.von.Cleveland.2...

Filme
Deadpool.2.2018.The.Super.Du...
Mr.Destiny.1990.German.DL.AC...
Mr.Destiny.1990.German.DL.AC...
Wahrheit.oder.Pflicht.Truth....
Steppenwolf.1974.German.DL.1...
Thelma.2017.German.DL.DTS.72...
Thelma.2017.German.DL.DTS.10...
Familiye.2017.German.AC3.108...
Familiye.2017.German.AC3.720...
Gringo.2018.German.DTS.DL.72...
Gringo.2018.German.DTS.DL.10...
Veronika.beschliesst.zu.ster...
Dead.Presidents.UNRATED.1995...
Die.gute.Erde.1937.German.AC...
Steppenwolf.1974.OAR.German....
Death.Watch.Der.gekaufte.Tod...
Communion.-.Messe.des.Grauen...
Monte.Carlo.Rallye.1969.Germ...
Ring.2.Unrated.2005.German.A...
Spot.-.Ein.Hund.auf.Abwegen....
Spot.-.See.Spot.Run.2001.Ger...
All.is.Lost.Ueberleben.ist.a...
Die.durch.die.Hoelle.gehen.1...
The.Flash.2014.S04.GERMAN.72...

 
 
Ibiza.2018.German.Dubbed.DL.720p.WEBRip.x264-BiGiNT
Jahr: 2018
Genre: Komödie
Sprache: Deutsch AC3 | Englisch AC3
Laufzeit: 1h 34mn
Bitrate: 3 631 Kbps
Format: MKV
Größe: 2.39 GiB
Release:

Beschreibung:

Während einer Geschäftsreise wird eine junge Frau von ihren zwei besten Freundinnen zu einem Kurztrip nach Ibiza überredet. Dort verstrickt sich das Trio in eine verrückte Jagd nach einem berühmten DJ.



Complete name                            : ibiza.2018.german.dubbed.dl.720p.webrip.x264-bigint.mkv
Format                                   : Matroska
Format version                           : Version 4 / Version 2
File size                                : 2.39 GiB
Duration                                 : 1h 34mn
Overall bit rate                         : 3 631 Kbps
Encoded date                             : UTC 2018-05-25 11:05:18
Writing application                      : mkvmerge v13.0.0 ('The Juggler') 64bit
Writing library                          : libebml v1.3.4 + libmatroska v1.4.5
DURATION                                 : 01:32:39.262000000
NUMBER_OF_FRAMES                         : 1428
NUMBER_OF_BYTES                          : 74587
_STATISTICS_WRITING_APP                  : mkvmerge v13.0.0 ('The Juggler') 64bit
_STATISTICS_WRITING_DATE_UTC             : 2018-05-25 11:05:18
_STATISTICS_TAGS                         : BPS DURATION NUMBER_OF_FRAMES NUMBER_OF_BYTES

Video
ID                                       : 1
Format                                   : AVC
Format/Info                              : Advanced Video Codec
Format profile                           : High@L4.1
Format settings, CABAC                   : Yes
Format settings, ReFrames                : 5 frames
Codec ID                                 : V_MPEG4/ISO/AVC
Duration                                 : 1h 34mn
Bit rate                                 : 2 727 Kbps
Width                                    : 1 280 pixels
Height                                   : 640 pixels
Display aspect ratio                     : 2.000
Frame rate mode                          : Constant
Frame rate                               : 23.976 fps
Color space                              : YUV
Chroma subsampling                       : 4:2:0
Bit depth                                : 8 bits
Scan type                                : Progressive
Bits/(Pixel*Frame)                       : 0.139
Stream size                              : 1.80 GiB (75%)
Writing library                          : x264 core 155 r2901 7d0ff22
Encoding settings                        : cabac=1 / ref=5 / deblock=1:-3:-3 / analyse=0x3:0x113 / me=hex / subme=8 / psy=1 / psy_rd=1.00:0.15 / mixed_ref=1 / me_range=16 / chroma_me=1 / trellis=2 / 8x8dct=1 / cqm=0 / deadzone=21,11 / fast_pskip=0 / chroma_qp_offset=-2 / threads=20 / lookahead_threads=3 / sliced_threads=0 / nr=0 / decimate=1 / interlaced=0 / bluray_compat=0 / constrained_intra=0 / bframes=3 / b_pyramid=2 / b_adapt=1 / b_bias=0 / direct=3 / weightb=1 / open_gop=0 / weightp=2 / keyint=250 / keyint_min=23 / scenecut=40 / intra_refresh=0 / rc_lookahead=50 / rc=crf / mbtree=1 / crf=18.0 / qcomp=0.60 / qpmin=0 / qpmax=69 / qpstep=4 / ip_ratio=1.40 / aq=3:0.80
Language                                 : English
Default                                  : Yes
Forced                                   : No
Matrix coefficients                      : BT.709
DURATION                                 : 01:34:22.032000000
NUMBER_OF_FRAMES                         : 135753
NUMBER_OF_BYTES                          : 1981247731
_STATISTICS_WRITING_APP                  : mkvmerge v13.0.0 ('The Juggler') 64bit
_STATISTICS_WRITING_DATE_UTC             : 2018-05-25 11:05:18
_STATISTICS_TAGS                         : BPS DURATION NUMBER_OF_FRAMES NUMBER_OF_BYTES

Audio #1
ID                                       : 2
Format                                   : AC-3
Format/Info                              : Audio Coding 3
Mode extension                           : CM (complete main)
Format settings, Endianness              : Big
Codec ID                                 : A_AC3
Duration                                 : 1h 34mn
Bit rate mode                            : Constant
Bit rate                                 : 384 Kbps
Channel(s)                               : 6 channels
Channel positions                        : Front: L C R, Side: L R, LFE
Sampling rate                            : 48.0 KHz
Bit depth                                : 16 bits
Compression mode                         : Lossy
Stream size                              : 259 MiB (11%)
Language                                 : German
Default                                  : Yes
Forced                                   : No

Audio #2
ID                                       : 3
Format                                   : E-AC-3
Format/Info                              : Audio Coding 3
Format settings, Endianness              : Big
Codec ID                                 : A_EAC3
Duration                                 : 1h 34mn
Bit rate mode                            : Constant
Bit rate                                 : 448 Kbps
Channel(s)                               : 6 channels
Channel positions                        : Front: L C R, Side: L R, LFE
Sampling rate                            : 48.0 KHz
Compression mode                         : Lossy
Stream size                              : 302 MiB (12%)
Language                                 : English
Default                                  : No
Forced                                   : No

Text #1
ID                                       : 4
Format                                   : UTF-8
Codec ID                                 : S_TEXT/UTF8
Codec ID/Info                            : UTF-8 Plain Text
Title                                    : Forced
Language                                 : German
Default                                  : Yes
Forced                                   : Yes

Text #2
ID                                       : 5
Format                                   : UTF-8
Codec ID                                 : S_TEXT/UTF8
Codec ID/Info                            : UTF-8 Plain Text
Title                                    : German
Language                                 : German
Default                                  : No
Forced                                   : No

Text #3
ID                                       : 6
Format                                   : UTF-8
Codec ID                                 : S_TEXT/UTF8
Codec ID/Info                            : UTF-8 Plain Text
Title                                    : English
Language                                 : English
Default                                  : No
Forced                                   : No


Download:
Share Online Share OnlineShare OnlineShare Online
 

Kommentare