DNS SERVER AENDERNum der staatlichen Zensur zu umgehen. Sollten wir von eurem Provider geseprrt werden, nutzt den TOR BROWSER oder ändert euren DNS SERVER.

Filmwünsche können bei uns im Forum abgegeben werden

Wir Speichern Nicht




 
 
 
Top Releases
Midnight.Sun.Alles.fuer.dich...
Familiye.2017.German.AC3.108...
Gringo.2018.German.DL.1080p....
Deadpool.2.Super.Duper.Cut.2...
Deadpool.2.Super.Duper.Cut....
Deadpool.2.Super.Duper.Cut.2...
Thelma.2017.German.AC3.DL.10...
Familiye.2017.German.1080p.B...
Familiye.2017.German.720p.Bl...
Midnight.Sun.Alles.fuer.dich...

Cinedubs
Breaking.In.2018.UNRATED.GER...
Breaking.In.2018.UNRATED.GER...
Breaking.In.2018.UNRATED.GER...
Die.Farbe.des.Horizonts.2018...
Die.Farbe.des.Horizonts.2018...
Catch.Me.2018.GERMAN.DL.AC3....
Catch.Me.2018.GERMAN.DL.AC3....
Skyscraper.2018.German.AC3LD...
Skyscraper.2018.GERMAN.DL.AC...
Der.Dolmetscher.German.AC3.7...

Neuerscheinungen 2017-18
Wilson.Der.Weltverbesserer.2...
Wilson.Der.Weltverbesserer.2...
Das.Zeitraetsel.2018.German....
Das.Zeitraetsel.2018.German....
Familiye.2017.GERMAN.COMPLET...
Lazer.Team.2015.DC.German.DL...
Lazer.Team.2015.DC.German.72...
Badlands.1973.MULTi.COMPLETE...
A.Thought.of.Ecstasy.2017.MU...
Criminal.Squad.THEATRICAL.20...

XXX
FuckingOffice.18.08.13.Naomi...
DateSlam.18.08.13.Miyuki.Asi...
EvilAngel.Anal.Players.5.XXX...
EvilAngel.18.07.05.Maddy.Ore...
GirlsOutWest.18.08.14.Kristi...
GirlsOutWest.18.08.13.Rose.B...
EvilAngel.18.08.13.Victoria....
Cosmid.18.08.13.Teresa.Kurta...
EuroGirlsOnGirls.18.08.13.In...
FemJoy.18.08.14.Cosmo.Summer...
FTVMilfs.18.08.14.Krissy.Lyn...
FitnessRooms.18.08.13.Mia.Na...
DaughterSwap.18.07.14.Skylar...
DevilsFilm.18.08.13.Aaliyah....
FutileStruggles.Backyard.Bon...
FakeDrivingSchool.18.08.13.G...
DigitalPlayground.18.08.13.C...
DevilsFilm.18.08.14.Sloan.Ha...
FutileStruggles.Clear.Strap....
GirlsOutWest.18.08.12.Jessie...

3D
Avengers.Infinity.War.3D.201...
Rampage.Big.Meets.Bigger.3D....
Rampage.Big.Meets.Bigger.3D....
Rampage.Big.Meets.Bigger.3D....
Winter.Games.3D.2013.DUAL.CO...
Tomb.Raider.3D.2018.German.7...
Rampage.Big.Meets.Bigger.3D....
Rampage.Big.Meets.Bigger.3D....
Tomb.Raider.3D.2018.MULTi.CO...
Pacific.Rim.Uprising.3D.2018...
Ready.Player.One.3D.2018.Ger...
Rampage.-.Big.Meets.Bigger.2...
Ready.Player.One.2018.3D.HOU...
Ready.Player.One.2018.3D.HSB...
Ready.Player.One.3D.2018.MUL...

Old_Stuff
Meine.liebe.Rabenmutter.germ...
Da.Vincis.Demons.S01.Complet...
Eragon.Das.Vermaechtnis.der....
Adele.und.das.Geheimnis.des....
Die.fabelhafte.Welt.der.Amel...
Haus.des.Geldes.S01.German.M...
How.I.Met.Your.Mother.S01.Ge...
The.Dark.Knight.Rises.2012.M...
Weissensee.S03.2015.GERMAN.C...
Weissensee.S01+S02.2010.GERM...
Die.Unglaublichen.-.The.Incr...
Der.grosse.Trick.1978.German...
Sully.2016.MULTi.COMPLETE.BL...
Tremors.3.Die.neue.Brut.2001...
Die.Indianer.von.Cleveland.2...

Filme
Deadpool.2.2018.The.Super.Du...
Mr.Destiny.1990.German.DL.AC...
Mr.Destiny.1990.German.DL.AC...
Wahrheit.oder.Pflicht.Truth....
Steppenwolf.1974.German.DL.1...
Thelma.2017.German.DL.DTS.72...
Thelma.2017.German.DL.DTS.10...
Familiye.2017.German.AC3.108...
Familiye.2017.German.AC3.720...
Gringo.2018.German.DTS.DL.72...
Gringo.2018.German.DTS.DL.10...
Veronika.beschliesst.zu.ster...
Dead.Presidents.UNRATED.1995...
Die.gute.Erde.1937.German.AC...
Steppenwolf.1974.OAR.German....
Death.Watch.Der.gekaufte.Tod...
Communion.-.Messe.des.Grauen...
Monte.Carlo.Rallye.1969.Germ...
Ring.2.Unrated.2005.German.A...
Spot.-.Ein.Hund.auf.Abwegen....
Spot.-.See.Spot.Run.2001.Ger...
All.is.Lost.Ueberleben.ist.a...
Die.durch.die.Hoelle.gehen.1...
The.Flash.2014.S04.GERMAN.72...

 
 
Das.Zeitraetsel.2018.German.AC3MD.DL.1080p.Bluray.x264-iND
Jahr: 2018
Genre: Abenteuer, Fantasy
Sprache: Deutsch AC3 | Englisch DTS
Laufzeit: 1h 49mn
Bitrate: 10.6 Mbps
Format: MKV
Größe: 8.10 GiB
Release:

Beschreibung:
Meg (Storm Reid) will einfach nur ein ganz normaler Teenager sein, doch weil die Tochter des berühmten Wissenschaftler-Paares Kate (Gugu Mbatha-Raw) und Alex Murry (Chris Pine) genau wie ihr Bruder Charles (Deric McCabe) hochintelligent ist, wird sie in der Schule immer anders behandelt – erst recht, als ihr Vater plötzlich verschwindet. Zunächst fühlt sich Meg der Situation machtlos ausgeliefert, doch dann entdeckt sie, dass das neueste Forschungsprojekt ihrer Eltern etwas mit dem Verschwinden ihres Vaters zu tun haben könnte und geht dem Rätsel gemeinsam mit ihrem kleinen Bruder und dem Nachbarsjungen Calvin (Levi Miller) auf den Grund. Bei ihrer gefährlichen Expedition, die sie durch Raum und Zeit führt, erhalten sie Hilfe von drei mysteriösen Wesen: Mrs. Soundso (Reese Witherspoon), Mrs. Wer (Mindy Kaling) und Mrs. Welche (Oprah Winfrey).


Complete name                            : ind-zeitraetsel.bd-1080.mkv
Format                                   : Matroska
Format version                           : Version 4 / Version 2
File size                                : 8.10 GiB
Duration                                 : 1h 49mn
Overall bit rate                         : 10.6 Mbps
Encoded date                             : UTC 2018-05-25 06:51:35
Writing application                      : mkvmerge v22.0.0 ('At The End Of The World') 64-bit
Writing library                          : libebml v1.3.5 + libmatroska v1.4.8
DURATION                                 : 01:40:10.944000000
NUMBER_OF_FRAMES                         : 187842
NUMBER_OF_BYTES                          : 168306432
_STATISTICS_WRITING_APP                  : mkvmerge v22.0.0 ('At The End Of The World') 64-bit
_STATISTICS_WRITING_DATE_UTC             : 2018-05-25 06:51:35
_STATISTICS_TAGS                         : BPS DURATION NUMBER_OF_FRAMES NUMBER_OF_BYTES

Video
ID                                       : 1
Format                                   : AVC
Format/Info                              : Advanced Video Codec
Format profile                           : High@L4.1
Format settings, CABAC                   : Yes
Format settings, ReFrames                : 5 frames
Codec ID                                 : V_MPEG4/ISO/AVC
Duration                                 : 1h 49mn
Bit rate                                 : 8 866 Kbps
Width                                    : 1 920 pixels
Height                                   : 808 pixels
Display aspect ratio                     : 2.40:1
Frame rate mode                          : Constant
Frame rate                               : 23.976 fps
Color space                              : YUV
Chroma subsampling                       : 4:2:0
Bit depth                                : 8 bits
Scan type                                : Progressive
Bits/(Pixel*Frame)                       : 0.238
Stream size                              : 6.61 GiB (82%)
Writing library                          : x264 core 155 r2901 7d0ff22
Encoding settings                        : cabac=1 / ref=5 / deblock=1:0:0 / analyse=0x3:0x133 / me=umh / subme=7 / psy=1 / psy_rd=1.00:0.00 / mixed_ref=1 / me_range=16 / chroma_me=1 / trellis=1 / 8x8dct=1 / cqm=0 / deadzone=21,11 / fast_pskip=0 / chroma_qp_offset=-2 / threads=25 / lookahead_threads=4 / sliced_threads=0 / nr=0 / decimate=1 / interlaced=0 / bluray_compat=0 / constrained_intra=0 / bframes=3 / b_pyramid=2 / b_adapt=1 / b_bias=0 / direct=1 / weightb=1 / open_gop=0 / weightp=2 / keyint=250 / keyint_min=23 / scenecut=40 / intra_refresh=0 / rc_lookahead=40 / rc=2pass / mbtree=1 / bitrate=8866 / ratetol=1.0 / qcomp=0.60 / qpmin=0 / qpmax=69 / qpstep=4 / cplxblur=20.0 / qblur=0.5 / ip_ratio=1.40 / aq=1:1.00
Language                                 : English
Default                                  : Yes
Forced                                   : No
DURATION                                 : 01:49:37.415000000
NUMBER_OF_FRAMES                         : 157700
NUMBER_OF_BYTES                          : 7288725024
_STATISTICS_WRITING_APP                  : mkvmerge v22.0.0 ('At The End Of The World') 64-bit
_STATISTICS_WRITING_DATE_UTC             : 2018-05-25 06:51:35
_STATISTICS_TAGS                         : BPS DURATION NUMBER_OF_FRAMES NUMBER_OF_BYTES

Audio #1
ID                                       : 2
Format                                   : AC-3
Format/Info                              : Audio Coding 3
Mode extension                           : CM (complete main)
Format settings, Endianness              : Big
Codec ID                                 : A_AC3
Duration                                 : 1h 49mn
Bit rate mode                            : Constant
Bit rate                                 : 224 Kbps
Channel(s)                               : 2 channels
Channel positions                        : Front: L R
Sampling rate                            : 48.0 KHz
Bit depth                                : 16 bits
Compression mode                         : Lossy
Stream size                              : 176 MiB (2%)
Language                                 : German
Default                                  : No
Forced                                   : No

Audio #2
ID                                       : 3
Format                                   : DTS
Format/Info                              : Digital Theater Systems
Mode                                     : 16
Format settings, Endianness              : Big
Codec ID                                 : A_DTS
Duration                                 : 1h 49mn
Bit rate mode                            : Constant
Bit rate                                 : 1 509 Kbps
Channel(s)                               : 6 channels
Channel positions                        : Front: L C R, Side: L R, LFE
Sampling rate                            : 48.0 KHz
Bit depth                                : 24 bits
Compression mode                         : Lossy
Stream size                              : 1.16 GiB (14%)
Language                                 : English
Default                                  : No
Forced                                   : No


Download:
Share Online Share OnlineShare OnlineShare Online
 

Kommentare