Filecrypt zeigt vereinzelt Files als "n/a". Die Downloads sind trotzdem komplett.

DNS SERVER AENDERNum der staatlichen Zensur zu umgehen. Sollten wir von eurem Provider geseprrt werden, nutzt den TOR BROWSER oder ändert euren DNS SERVER.

Filmwünsche können bei uns im Forum abgegeben werden

Wir Speichern Nicht




 
 
 
Top Releases
Hereditary.Das.Vermaechtnis....
Kedi.Von.Katzen.und.Menschen...
Skyscraper.German.DL.AC3.Dub...
Skyscraper.German.DL.AC3.Dub...
Hereditary.Das.Vermaechtnis....
Hotel.Transsilvanien.3.Ein.M...
Hereditary.2018.MULTi.COMPLE...
Ant-Man.and.the.Wasp.2018.Ge...
Meine.Weihnachtsliebe.2016.G...
Meine.Weihnachtsliebe.2016.G...

Cinedubs
Bad.Spies.2018.German.AC3MD....
Bad.Spies.2018.German.AC3MD....
MEG.Biss.bald.2018.German.AC...
Slender.Man.2018.GERMAN.DL.A...
Slender.Man.2018.GERMAN.DL.A...
MEG.Biss.bald.2018.German.AC...
MEG.Biss.bald.2018.German.AC...
Searching.2018.German.AC3MD....
Searching.2018.German.AC3MD....
211.Cops.Under.Fire.2018.Ger...

Neuerscheinungen 2017-18
Antiviral.2012.MULTI.COMPLET...
Antiviral.2012.GERMAN.DL.108...
Patient.Zero.2018.German.DTS...
Patient.Zero.2018.German.DTS...
The.Jurassic.Games.2018.GERM...
Jeepers.Creepers.3.2017.Germ...
Men.At.Work.1990.MULTi.COMPL...
Men.at.Work.1990.German.DL.1...
Das.ist.erst.der.Anfang.Just...
Das.ist.erst.der.Anfang.Miss...

XXX
PornMegaLoad.18.10.03.Vanna....
FTVMilfs.18.10.02.Ryan.Keely...
LaCochonne.18.10.01.Kristy.B...
NubileFilms.18.10.02.Cherry....
InTheCrack.E1456.Shrima.Mala...
VIPArea.18.10.05.Vanessa.Ver...
WankItNow.17.11.14.Tindra.Fr...
ATKHairy.18.10.02.Malta.XXX....
MistressT.18.06.01.Clinical....
Penthouse.Sinful.Deeds.And.D...
BigButtsLikeItBig.18.10.01.L...
GirlsOutWest.18.10.05.May.XX...
BlacksOnBlondes.18.10.02.Pep...
PornMegaLoad.18.10.01.Terra....
DevilsFilm.Blacked.Out.10.XX...
ATKGirlfriends.18.10.01.Zoe....
DevilsFilm.18.10.03.Mandy.Mu...
MilfBody.18.10.03.Aubrey.Bla...
ATKGirlfriends.18.10.05.Mega...
MistressT.17.09.11.BBC.Fag.W...

3D
Detective.Dee.und.die.Legend...
Skyscraper.3D.German.DL.AC3....
Ant-Man.and.the.Wasp.2018.3D...
Jurassic.World.Das.gefallene...
Jurassic.World.Das.gefallene...
Best.of.3D.vol.10.-.12.GERMA...
Die.Biene.Maja.2.Die.Honigsp...
Sharknado.6.The.Last.One.3D....
Solo.A.Star.Wars.Story.3D.20...
Solo.A.Star.Wars.Story.3D.20...
Die.Biene.Maja.2.Die.Honigsp...
Avengers.Infinity.War.3D.201...
Avengers.Infinity.War.3D.201...
Rampage.Big.Meets.Bigger.3D....
Rampage.Big.Meets.Bigger.3D....

Old_Stuff
Species.IV.Das.Erwachen.2007...
Species.IV.Das.Erwachen.2007...
Hotel.Transsilvanien.2012.Ge...
The.Dead.2010.German.DL.1080...
The.Dead.2.India.2013.German...
Britney.Spears.Live.The.Femm...
Buffy.The.Vampire.Slayer.199...
IMAX.Ride.Around.The.World.2...
Schimanski.-.Duisburg.Ruhror...
Akte.X.S02.German.DTS.DL.108...
How.I.Met.Your.Mother.S02.Ge...
Akte.X.S01.German.DTS.DL.108...
Den.Himmel.gibts.echt.DL.108...
Vikings.S02.German.DL.1080p....
Be.Kind.Rewind.Abgedreht.200...

Filme
The.Graves.German.DL.1080p.B...
The.Honor.of.Killing.2012.Ge...
Ein.Sarg.aus.Hongkong.1964.G...
Ein.Richter.sieht.rot.1983.G...
Ein.Vogel.auf.dem.Drahtseil....
Antiviral.2012.GERMAN.720p.B...
The.Glass.Shield.Auf.Ehre.un...
Wildauge.The.Midwife.German....
Descent.2007.German.DTS.DL.1...
The.Last.Warrior.2000.German...
Cannibal.Rising.2012.German....
Die.vier.Schaedel.des.Jonath...
You.Cant.Kill.Stephen.King.2...
Wake.Wood.2011.German.DTS.DL...
Ein.Mord.mit.Aussicht.2015.G...
Boris.Becker.Der.Spieler.201...
Ein.Leben.fuer.ein.Leben.Ada...
Die.vier.Soehne.der.Katie.El...
Ein.Kuss.vor.dem.tode.1956.G...
Ein.Mann.fuer.gewisse.Stunde...
Ein.letzter.Sommer.2010.Germ...
Pusher.2012.German.DL.1080p....
Draculas.Bluthochzeit.mit.Fr...
Mr.Destiny.1990.German.AC3D....

 
 
Fauda.S02.COMPLETE.German.DD51.ML.1080p.NetflixHD.x264-TVS
Jahr: 2017
Genre: Action | Drama | Thriller
Sprache: Deutsch AC3 |Englisch AC3 | Hebräisch AC3
Laufzeit: 45min je Folge
Bitrate: 5800 Kbps
Format: MKV
Größe: 2,2 GB je Folge
Release:

Beschreibung:

Die Actionserie „Fauda“ (arabisch für „Chaos“) thematisiert die zwei Seiten des israelisch-palästinensischen Konflikts. Doron, der Kommandant einer israelischen Undercover-Einheit, jagt zusammen mit seinem Team den Hamas-Aktivisten Abu-Ahmad. Gleichzeitig wird dessen Geschichte und das Schicksal seiner Familie erzählt, weshalb sie einen Hass gegenüber Israel entwickelt haben. ​



General
Complete name                            : Fauda.S02E01.German.DD51.ML.1080p.NetflixHD.x264-TVS\tvs-fauda-dd51-ml-18p-nfhd-x264-201.mkv
Format                                   : Matroska
Format version                           : Version 4 / Version 2
File size                                : 2.21 GiB
Duration                                 : 46mn 26s
Overall bit rate mode                    : Variable
Overall bit rate                         : 6 813 Kbps
Encoded date                             : UTC 2018-05-24 22:01:24
Writing application                      : mkvmerge v22.0.0 ('At The End Of The World') 64-bit
Writing library                          : libebml v1.3.5 + libmatroska v1.4.8
DURATION                                 : 00:40:17.600000000
NUMBER_OF_FRAMES                         : 305
NUMBER_OF_BYTES                          : 12674
_STATISTICS_WRITING_APP                  : mkvmerge v22.0.0 ('At The End Of The World') 64-bit
_STATISTICS_WRITING_DATE_UTC             : 2018-05-24 22:01:24
_STATISTICS_TAGS                         : BPS DURATION NUMBER_OF_FRAMES NUMBER_OF_BYTES

Video
ID                                       : 1
Format                                   : AVC
Format/Info                              : Advanced Video Codec
Format profile                           : Main@L4.0
Format settings, CABAC                   : Yes
Format settings, ReFrames                : 3 frames
Codec ID                                 : V_MPEG4/ISO/AVC
Duration                                 : 46mn 26s
Bit rate mode                            : Variable
Bit rate                                 : 5 800 Kbps
Maximum bit rate                         : 8 700 Kbps
Width                                    : 1 920 pixels
Height                                   : 1 080 pixels
Display aspect ratio                     : 16:9
Frame rate mode                          : Constant
Frame rate                               : 25.000 fps
Color space                              : YUV
Chroma subsampling                       : 4:2:0
Bit depth                                : 8 bits
Scan type                                : Progressive
Bits/(Pixel*Frame)                       : 0.112
Stream size                              : 1.79 GiB (81%)
Writing library                          : x264 core 148 r2715 7e75228
Encoding settings                        : cabac=1 / ref=3 / deblock=1:0:0 / analyse=0x1:0x111 / me=umh / subme=10 / psy=1 / psy_rd=1.00:0.00 / mixed_ref=1 / me_range=24 / chroma_me=1 / trellis=2 / 8x8dct=0 / cqm=0 / deadzone=21,11 / fast_pskip=1 / chroma_qp_offset=-2 / threads=8 / lookahead_threads=1 / sliced_threads=0 / nr=0 / decimate=1 / interlaced=0 / bluray_compat=0 / stitchable=1 / constrained_intra=0 / bframes=2 / b_pyramid=0 / b_adapt=2 / b_bias=0 / direct=3 / weightb=1 / open_gop=0 / weightp=2 / keyint=50 / keyint_min=26 / scenecut=0 / intra_refresh=0 / rc_lookahead=50 / rc=2pass / mbtree=1 / bitrate=5800 / ratetol=1.0 / qcomp=0.50 / qpmin=6 / qpmax=51 / qpstep=4 / cplxblur=20.0 / qblur=0.5 / vbv_maxrate=8700 / vbv_bufsize=11600 / nal_hrd=vbr / filler=0 / ip_ratio=1.40 / aq=1:1.00
Default                                  : Yes
Forced                                   : No

Audio #1
ID                                       : 2
Format                                   : AC-3
Format/Info                              : Audio Coding 3
Mode extension                           : CM (complete main)
Format settings, Endianness              : Big
Codec ID                                 : A_AC3
Duration                                 : 46mn 26s
Bit rate mode                            : Constant
Bit rate                                 : 384 Kbps
Channel(s)                               : 6 channels
Channel positions                        : Front: L C R, Side: L R, LFE
Sampling rate                            : 48.0 KHz
Bit depth                                : 16 bits
Compression mode                         : Lossy
Stream size                              : 128 MiB (6%)
Language                                 : German
Default                                  : Yes
Forced                                   : No

Audio #2
ID                                       : 3
Format                                   : AC-3
Format/Info                              : Audio Coding 3
Mode extension                           : CM (complete main)
Format settings, Endianness              : Big
Codec ID                                 : A_AC3
Duration                                 : 46mn 26s
Bit rate mode                            : Constant
Bit rate                                 : 384 Kbps
Channel(s)                               : 6 channels
Channel positions                        : Front: L C R, Side: L R, LFE
Sampling rate                            : 48.0 KHz
Bit depth                                : 16 bits
Compression mode                         : Lossy
Stream size                              : 128 MiB (6%)
Language                                 : English
Default                                  : No
Forced                                   : No

Audio #3
ID                                       : 4
Format                                   : AC-3
Format/Info                              : Audio Coding 3
Mode extension                           : CM (complete main)
Format settings, Endianness              : Big
Codec ID                                 : A_AC3
Duration                                 : 46mn 26s
Bit rate mode                            : Constant
Bit rate                                 : 384 Kbps
Channel(s)                               : 6 channels
Channel positions                        : Front: L C R, Side: L R, LFE
Sampling rate                            : 48.0 KHz
Bit depth                                : 16 bits
Compression mode                         : Lossy
Stream size                              : 128 MiB (6%)
Language                                 : Hebrew
Default                                  : No
Forced                                   : No

Text #1
ID                                       : 5
Format                                   : UTF-8
Codec ID                                 : S_TEXT/UTF8
Codec ID/Info                            : UTF-8 Plain Text
Title                                    : Forced
Language                                 : German
Default                                  : Yes
Forced                                   : Yes

Text #2
ID                                       : 6
Format                                   : UTF-8
Codec ID                                 : S_TEXT/UTF8
Codec ID/Info                            : UTF-8 Plain Text
Language                                 : German
Default                                  : No
Forced                                   : No

Text #3
ID                                       : 7
Format                                   : UTF-8
Codec ID                                 : S_TEXT/UTF8
Codec ID/Info                            : UTF-8 Plain Text
Title                                    : Forced
Language                                 : English
Default                                  : No
Forced                                   : Yes

Text #4
ID                                       : 8
Format                                   : UTF-8
Codec ID                                 : S_TEXT/UTF8
Codec ID/Info                            : UTF-8 Plain Text
Language                                 : English
Default                                  : No
Forced                                   : No

Text #5
ID                                       : 9
Format                                   : UTF-8
Codec ID                                 : S_TEXT/UTF8
Codec ID/Info                            : UTF-8 Plain Text
Title                                    : Forced
Language                                 : Hebrew
Default                                  : No
Forced                                   : Yes

Text #6
ID                                       : 10
Format                                   : UTF-8
Codec ID                                 : S_TEXT/UTF8
Codec ID/Info                            : UTF-8 Plain Text
Language                                 : Hebrew
Default                                  : No
Forced                                   : No



Download:
Share-Online.biz Share-Online.bizShare-Online.bizShare-Online.biz | Rapidgator.net Rapidgator.netRapidgator.netRapidgator.net
 

Kommentare