Filecrypt zeigt vereinzelt Files als "n/a". Die Downloads sind trotzdem komplett.

DNS SERVER AENDERNum der staatlichen Zensur zu umgehen. Sollten wir von eurem Provider geseprrt werden, nutzt den TOR BROWSER oder ändert euren DNS SERVER.

Filmwünsche können bei uns im Forum abgegeben werden

Wir Speichern Nicht




 
 
 
Top Releases
Maleika.2017.GERMAN.DOKU.108...
Ant-Man.And.The.Wasp.2018.Ge...
Apostle.2018.German.AC3.DL.1...
Brawl.in.Cell.Block.99.UNCUT...
Burning.2.On.Ice.2016.German...
22.Juli.2018.German.AC3.DL.1...
No.Way.Out.Gegen.die.Flammen...
Ant-Man.and.the.Wasp.2018.Ge...
Ant-Man.and.the.Wasp.2018.Ge...
Ant-Man.and.the.Wasp.2018.Ge...

Cinedubs
Slender.Man.2018.GERMAN.DL.A...
Slender.Man.2018.GERMAN.DL.A...
Bad.Spies.2018.German.AC3MD....
MEG.Biss.bald.2018.German.AC...
MEG.Biss.bald.2018.German.AC...
Bad.Spies.2018.German.AC3MD....
Bad.Spies.2018.German.AC3MD....
Searching.2018.German.AC3MD....
Searching.2018.German.AC3MD....
211.Cops.Under.Fire.2018.Ger...

Neuerscheinungen 2017-18
Die.letzte.Party.deines.Lebe...
Die.letzte.Party.deines.Lebe...
Anon.2018.German.DL.1080p.Bl...
Anon.2018.German.720p.BluRay...
Ant-Man.and.the.Wasp.2018.Ge...
Ant-Man.and.the.Wasp.2018.Ge...
The.Dead.and.the.Damned.3.Ra...
The.Dead.and.the.Damned.3.Ra...
The.Watcher.Willkommen.im.Mo...
Term.Life.Moerderischer.Wett...

XXX
Spizoo.18.10.03.Nikki.Knight...
EternalDesire.18.10.02.Sulta...
SexArt.18.10.03.Stefany.Moon...
Submissived.18.10.01.Ember.S...
Beauty4K.18.10.05.Shona.Rive...
GirlsWay.18.10.01.Ashley.Ada...
GirlsOutWest.18.10.03.Daliah...
MistressT.18.06.26.Cocksucki...
SinsLife.18.10.02.Holly.Morg...
DeviceBondage.18.10.04.Bobbi...
MistressT.18.05.15.Chastity....
WankItNow.17.11.15.Beth.Spoi...
MistressT.17.12.26.Cock.Ring...
PornMegaLoad.18.10.04.Naia.B...
ATKGirlfriends.18.10.04.Jane...
MistressT.18.01.14.Cock.Cont...
TrueAnal.18.10.05.Anastasia....
Fitting-Room.18.10.01.Cassie...
JulesJordan.18.10.01.Arya.Fa...
BitchesAbroad.18.10.04.Julia...

3D
Jurassic.World.Das.gefallene...
Jurassic.World.Das.gefallene...
Best.of.3D.vol.10.-.12.GERMA...
Die.Biene.Maja.2.Die.Honigsp...
Sharknado.6.The.Last.One.3D....
Solo.A.Star.Wars.Story.3D.20...
Solo.A.Star.Wars.Story.3D.20...
Die.Biene.Maja.2.Die.Honigsp...
Avengers.Infinity.War.3D.201...
Avengers.Infinity.War.3D.201...
Rampage.Big.Meets.Bigger.3D....
Rampage.Big.Meets.Bigger.3D....
Rampage.Big.Meets.Bigger.3D....
Winter.Games.3D.2013.DUAL.CO...
Tomb.Raider.3D.2018.German.7...

Old_Stuff
Hotel.Transsilvanien.2012.Ge...
The.Dead.2010.German.DL.1080...
The.Dead.2.India.2013.German...
Britney.Spears.Live.The.Femm...
Buffy.The.Vampire.Slayer.199...
IMAX.Ride.Around.The.World.2...
Schimanski.-.Duisburg.Ruhror...
Akte.X.S02.German.DTS.DL.108...
How.I.Met.Your.Mother.S02.Ge...
Akte.X.S01.German.DTS.DL.108...
Den.Himmel.gibts.echt.DL.108...
Vikings.S02.German.DL.1080p....
Be.Kind.Rewind.Abgedreht.200...
Be.Kind.Rewind.Abgedreht.200...
Dracula.The.Dark.Lord.2012.G...

Filme
Steig.Nicht.Aus.2018.German....
The.Fast.and.the.Furious.200...
Erbarmen.2013.German.DTS.108...
The.Awakening.2012.German.DL...
Diamond.13.German.DL.1080p.B...
Blutiger.Zahltag.German.1977...
Anne.Clark.I.Will.Walk.Out.I...
Avatar.Aufbruch.nach.Pandora...
Enders.Game.Das.grosse.Spiel...
Dritte.Person.German.DL.1080...
The.Frankenstein.Theory.2013...
The.Game.1997.German.DTS.DL....
The.Gang.Auge.um.Auge.2011.G...
Diane.-.Kurtisane.von.Frankr...
Gangsters.Guns.Zombies.2012....
The.Dead.and.the.Damned.3.Ra...
Brawl.in.Cell.Block.99.UNCUT...
The.Fast.And.The.Furious.Tok...
The.Fast.and.the.Furious.Tok...
Jay.And.Silent.Bob.Strike.Ba...
Weltengaenger.2018.GERMAN.DL...
Salman.Khan.-.Veer.2010.GERM...
Trolls.2016.German.DTSD.DL.2...
Antarktis.Leben.am.Limit.201...

 
 
False.Flag.S01.GERMAN.720p.HDTV.x264-ACED
Jahr: 2014
Genre: Drama | Thriller
Sprache: Deutsch AC3
Laufzeit: 35min je Folge
Bitrate: 3100 Kbps
Format: MKV
Größe: 900 MB je Folge
Release:

Beschreibung:

In der israelischen Serie „False Flag“ werden eines morgens werden fünf normale israelische Staatsbürger damit konfrontiert, dass sie unter Verdacht stehen, den iranischen Verteidigungsminister Farhead Sulimani gewaltsam entführt zu haben. Ihre Identitäten und Fotos von ihnen werden weltweit in den Nachrichten verbreitet, während sie herausfinden, dass Sulimani bei einem Besuch in Mosku unter Drogen gesetzt und verschleppt wurde. Natürlich beteuern die Beschuldigten ihre Unschuld, doch bald beginnen selbst ihre Angehörigen an ihnen zu zweifeln. Ihr Leben gerät außer Kontrolle und das eigene Land ermittelt gegen sie. Die Verwechslung wird bald zu einem waschechten Thriller.

 

enthaltene Folgen:

False.Flag.S01E01.GERMAN.720p.HDTV.h264-ACED 

False.Flag.S01E02.GERMAN.720p.HDTV.h264-ACED

False.Flag.S01E03.GERMAN.720p.HDTV.h264-ACED 

False.Flag.S01E04.GERMAN.720p.HDTV.h264-ACED

False.Flag.S01E05.GERMAN.720p.HDTV.h264-ACED 

False.Flag.S01E06.GERMAN.720p.HDTV.h264-ACED

False.Flag.S01E07.GERMAN.720p.HDTV.h264-ACED NEU

False.Flag.S01E08.GERMAN.720p.HDTV.h264-ACED NEU



General
Complete name                            : False.Flag.S01E01.GERMAN.720p.HDTV.x264-ACED\False.Flag.S01E01.GERMAN.720p.HDTV.x264-ACED.mkv
Format                                   : Matroska
Format version                           : Version 4 / Version 2
File size                                : 921 MiB
Duration                                 : 35mn 28s
Overall bit rate                         : 3 629 Kbps
Encoded date                             : UTC 2018-05-28 19:39:23
Writing application                      : mkvmerge v23.0.0 ('The Bride Said No') 64-bit
Writing library                          : Lavf57.83.100

Video
ID                                       : 1
Format                                   : AVC
Format/Info                              : Advanced Video Codec
Format profile                           : High@L4.1
Format settings, CABAC                   : Yes
Format settings, ReFrames                : 5 frames
Codec ID                                 : V_MPEG4/ISO/AVC
Duration                                 : 35mn 28s
Bit rate                                 : 3 172 Kbps
Width                                    : 1 280 pixels
Height                                   : 720 pixels
Display aspect ratio                     : 16:9
Frame rate mode                          : Constant
Frame rate                               : 25.000 fps
Color space                              : YUV
Chroma subsampling                       : 4:2:0
Bit depth                                : 8 bits
Scan type                                : Progressive
Bits/(Pixel*Frame)                       : 0.138
Stream size                              : 805 MiB (87%)
Writing library                          : x264 core 155 r2901 7d0ff22
Encoding settings                        : cabac=1 / ref=5 / deblock=1:-3:-3 / analyse=0x3:0x113 / me=umh / subme=9 / psy=1 / psy_rd=1.00:0.00 / mixed_ref=1 / me_range=16 / chroma_me=1 / trellis=2 / 8x8dct=1 / cqm=0 / deadzone=21,11 / fast_pskip=0 / chroma_qp_offset=-2 / threads=12 / lookahead_threads=1 / sliced_threads=0 / nr=0 / decimate=1 / interlaced=0 / bluray_compat=0 / constrained_intra=0 / bframes=3 / b_pyramid=2 / b_adapt=1 / b_bias=0 / direct=3 / weightb=1 / open_gop=0 / weightp=2 / keyint=200 / keyint_min=20 / scenecut=40 / intra_refresh=0 / rc_lookahead=50 / rc=crf / mbtree=1 / crf=18.0 / qcomp=0.60 / qpmin=0 / qpmax=69 / qpstep=4 / ip_ratio=1.40 / aq=1:1.00
Default                                  : Yes
Forced                                   : No
DURATION                                 : 00:35:28.649000000

Audio
ID                                       : 2
Format                                   : AC-3
Format/Info                              : Audio Coding 3
Mode extension                           : CM (complete main)
Format settings, Endianness              : Big
Codec ID                                 : A_AC3
Duration                                 : 35mn 28s
Bit rate mode                            : Constant
Bit rate                                 : 384 Kbps
Channel(s)                               : 2 channels
Channel positions                        : Front: L R
Sampling rate                            : 48.0 KHz
Bit depth                                : 16 bits
Compression mode                         : Lossy
Delay relative to video                  : -1s 489ms
Stream size                              : 97.4 MiB (11%)
Language                                 : German
Default                                  : Yes
Forced                                   : No
DURATION                                 : 00:35:28.576000000



Download:
Share-Online.biz Share-Online.bizShare-Online.bizShare-Online.biz | Rapidgator.net Rapidgator.netRapidgator.netRapidgator.net
 

Kommentare