DNS SERVER AENDERNum der staatlichen Zensur zu umgehen. Sollten wir von eurem Provider geseprrt werden, nutzt den TOR BROWSER oder ändert euren DNS SERVER.

Filmwünsche können bei uns im Forum abgegeben werden

Wir Speichern Nicht




 
 
 
Top Releases
Batman.Ninja.2018.German.AC3...
Brain.on.Fire.2016.German.Du...
Brain.on.Fire.2016.German.Du...
The.Whiskey.Bandit.Allein.ge...
Loving.Vincent.2017.German.D...
Rise.of.the.Scythian.2018.Ge...
Der.geilste.Tag.2016.German....
Das.Leben.ist.ein.Fest.2017....
Central.Intelligence.EXTENDE...
Wind.River.2017.German.AC3.D...

Cinedubs
Ready.Player.One.2018.German...
Ready.Player.One.2018.German...
How.to.Party.with.Mom.2018.G...
How.to.Party.with.Mom.2018.G...
Ready.Player.One.German.DL.A...
Ready.Player.One.German.DL.A...
Rampage.2018.German.AC3D.DL....
Rampage.2018.German.AC3D.DL....
Tomb.Raider.2018.3D.HSBS.Ger...
Tomb.Raider.2018.3D.HOU.Germ...

Neuerscheinungen 2017-18
Gremlin.2017.German.1080p.HD...
Menschen.am.Fluss.The.River....
Wahrheit.oder.Pflicht.2018.G...
Die.gnadenlosen.Vier.Posse.f...
Die.Wall.Street.Verschwoerun...
Die.Wall.Street.Verschwoerun...
Die.Wall.Street.Verschwoerun...
The.Lodgers.2017.MULTI.COMPL...
Hilfe.ich.hab.meine.Eltern.g...
Hilfe.Ich.hab.meine.Eltern.g...

XXX
ExposedWhores.E205.Soleil.Ma...
Fitting-Room.18.06.14.Melena...
PlumperPass.18.06.13.Curvy.Q...
Killergram.18.06.14.Masked.M...
CumPerfection.18.06.14.Melli...
DarkX.18.06.14.Gina.Valentin...
ExposedWhores.E208.Shavelle....
ExposedWhores.E207.Sheena.Ry...
Nubiles.18.06.14.Jia.Lissa.N...
Hustler.18.06.14.Kimber.Wood...
Bang.Glamkore.18.06.14.Aisli...
ExploitedCollegeGirls.18.06....
PetiteHDPorn.18.06.14.Molly....
MomXXX.18.06.14.Georgie.Lyal...
MyFriendsHotMom.18.06.14.Sar...
Anilos.18.06.14.Darla.Red.Li...
Nubiles.18.06.13.Sarah.Smith...
Its.OKay.Shes.My.Stepmother....
NubileFilms.18.06.13.Ember.S...
FamilyStrokes.18.06.14.Lily....

3D
Tomb.Raider.2018.3D.COMPLETE...
Zombies.Ueberlebe.die.Untote...
Der.Dschungel.Der.Zauber.ein...
Penthouse.Presents.Sexy.Sing...
The.LEGO.Ninjago.Movie.3D.20...
Zombies.Ueberlebe.die.Untote...
Norwegen.3D.2013.GERMAN.DL.D...
Norwegen.3D.2013.GERMAN.DOKU...
Jumanji.Willkommen.im.Dschun...
Jumanji.Welcome.To.The.Jungl...
Abraham.Lincoln.Vampire.Hunt...
Norwegen.3D.2013.MULTi.COMPL...
Star.Wars.Episode.VIII.Die.l...
Star.Wars.Episode.VIII.Die.l...
Star.Wars.Episode.VIII.Die.l...

Old_Stuff
Weissensee.S03.2015.GERMAN.C...
Weissensee.S01+S02.2010.GERM...
Die.Unglaublichen.-.The.Incr...
Der.grosse.Trick.1978.German...
Sully.2016.MULTi.COMPLETE.BL...
Tremors.3.Die.neue.Brut.2001...
Die.Indianer.von.Cleveland.2...
Dealt.2017.1080p.AMZN.WEB-DL...
Dealt.2017.720p.AMZN.WEB-DL....
Roter.Staub.aka.The.Brave.On...
Roter.Staub.aka.The.Brave.On...
Magic.in.the.Moonlight.2014....
The.LEGO.Ninjago.Movie.2017....
Zeit.der.Zaertlichkeit.1983....
Zeit.der.Zaertlichkeit.1983....

Filme
Rampage.2009.German.DTSHD.DL...
Willard.1971.German.AC3.DL.1...
Blue.Valentine.German.DL.108...
Blue.in.the.Face.Alles.blaue...
The.Proposition.2005.German....
The.Flash.2014.S04.GERMAN.72...
Supergirl.S03.GERMAN.720p.HD...
Gotham.S04.GERMAN.720p.HDTV....
Scorpion.S04.GERMAN.DUBBED.D...
Boeing.Boeing.1965.German.AC...
Formel.1.Saison.2018.GERMAN....
Todfreunde.aka.Bad.Influence...
TinkerBell.und.die.Legende.v...
Dein.Schicksal.in.meiner.Han...
Dein.Schicksal.in.meiner.Han...
Entourage.2015.German.DL.108...
Die.Wilby-Verschwoerung.1975...
Die.Wilby-Verschwoerung.1975...
Die.Eiskoenigin.Voellig.unve...
Drag.Me.to.Hell.Unrated.Rema...
Evil.Dead.Die.Saat.Des.Boese...
Heute.bin.ich.Samba.2014.Ger...
Prinzessin.Mononoke.1997.Ger...
15.17.to.Paris.2018.German.D...

 
 
Pacific.Rim.2.Uprising.German.DL.AC3.Dubbed.1080p.BluRay.x264-PsO
Jahr: 2018
Genre: Action | Abenteuer | Sci-Fi
Sprache: Deutsch AC3 | Englisch AC3
Laufzeit: 1h 50mn
Bitrate: 10.1 Mbps
Format: MKV
Größe: 7.82 GiB
Release:

Beschreibung:

Die Kaiju kehren zurück - und sind stärker als je zuvor!

Jake Pentecost - der einst rebellische, aber hoffnungsvolle Jaeger-Pilot - hat seine Ausbildung abgebrochen und droht in die Kriminalität abzurutschen. Als plötzlich die Erde mit einer neuen, völlig überraschenden Attacke konfrontiert wird, stellt sich Jake der Herausforderung, das ruhmreiche Erbe seines Vaters anzutreten. An Jakes Seite kämpfen sein Pilotenrivale Lambert und die 15-jährige Jaeger-Hackerin Amara. Schon bald bildet das Pan Pacific Defense Corps eine mächtige Abwehrtruppe - und jeder Einzelne muss erkennen, dass er nur in der heldenhaftesten Version von sich selbst zum Sieg gegen die Monster beitragen kann. Ein mitreißendes Abenteuer völlig

 



Complete name                            : pso-pacificrim2_bd.1080p.mkv
Format                                   : Matroska
Format version                           : Version 4 / Version 2
File size                                : 7.82 GiB
Duration                                 : 1h 50mn
Overall bit rate                         : 10.1 Mbps
Encoded date                             : UTC 2018-06-07 11:35:05
Writing application                      : mkvmerge v8.3.0 ('Over the Horizon') 64bit
Writing library                          : libebml v1.3.1 + libmatroska v1.4.2
DURATION                                 : 00:42:03.470000000
NUMBER_OF_FRAMES                         : 45
NUMBER_OF_BYTES                          : 1651
_STATISTICS_WRITING_APP                  : mkvmerge v8.3.0 ('Over the Horizon') 64bit
_STATISTICS_WRITING_DATE_UTC             : 2018-06-07 11:35:05
_STATISTICS_TAGS                         : BPS DURATION NUMBER_OF_FRAMES NUMBER_OF_BYTES

Video
ID                                       : 1
Format                                   : AVC
Format/Info                              : Advanced Video Codec
Format profile                           : High@L4.1
Format settings, CABAC                   : Yes
Format settings, ReFrames                : 5 frames
Codec ID                                 : V_MPEG4/ISO/AVC
Duration                                 : 1h 50mn
Bit rate                                 : 9 255 Kbps
Width                                    : 1 920 pixels
Height                                   : 800 pixels
Display aspect ratio                     : 2.40:1
Frame rate mode                          : Constant
Frame rate                               : 23.976 fps
Color space                              : YUV
Chroma subsampling                       : 4:2:0
Bit depth                                : 8 bits
Scan type                                : Progressive
Bits/(Pixel*Frame)                       : 0.251
Stream size                              : 7.00 GiB (89%)
Writing library                          : x264 core 155 r2901 7d0ff22
Encoding settings                        : cabac=1 / ref=5 / deblock=1:0:0 / analyse=0x3:0x133 / me=umh / subme=7 / psy=1 / psy_rd=1.00:0.00 / mixed_ref=1 / me_range=16 / chroma_me=1 / trellis=1 / 8x8dct=1 / cqm=0 / deadzone=21,11 / fast_pskip=0 / chroma_qp_offset=-2 / threads=25 / lookahead_threads=4 / sliced_threads=0 / nr=0 / decimate=1 / interlaced=0 / bluray_compat=0 / constrained_intra=0 / bframes=3 / b_pyramid=2 / b_adapt=1 / b_bias=0 / direct=1 / weightb=1 / open_gop=0 / weightp=2 / keyint=250 / keyint_min=23 / scenecut=40 / intra_refresh=0 / rc_lookahead=40 / rc=2pass / mbtree=1 / bitrate=9255 / ratetol=1.0 / qcomp=0.60 / qpmin=0 / qpmax=69 / qpstep=4 / cplxblur=20.0 / qblur=0.5 / ip_ratio=1.40 / aq=1:1.00
Language                                 : English
Default                                  : Yes
Forced                                   : No
DURATION                                 : 01:50:42.146000000
NUMBER_OF_FRAMES                         : 159252
NUMBER_OF_BYTES                          : 7681097256
_STATISTICS_WRITING_APP                  : mkvmerge v8.3.0 ('Over the Horizon') 64bit
_STATISTICS_WRITING_DATE_UTC             : 2018-06-07 11:35:05
_STATISTICS_TAGS                         : BPS DURATION NUMBER_OF_FRAMES NUMBER_OF_BYTES

Audio #1
ID                                       : 2
Format                                   : AC-3
Format/Info                              : Audio Coding 3
Mode extension                           : CM (complete main)
Format settings, Endianness              : Big
Codec ID                                 : A_AC3
Duration                                 : 1h 50mn
Bit rate mode                            : Constant
Bit rate                                 : 224 Kbps
Channel(s)                               : 2 channels
Channel positions                        : Front: L R
Sampling rate                            : 48.0 KHz
Bit depth                                : 16 bits
Compression mode                         : Lossy
Delay relative to video                  : 24ms
Stream size                              : 177 MiB (2%)
Language                                 : German
Default                                  : Yes
Forced                                   : Yes

Audio #2
ID                                       : 3
Format                                   : AC-3
Format/Info                              : Audio Coding 3
Mode extension                           : CM (complete main)
Format settings, Endianness              : Big
Codec ID                                 : A_AC3
Duration                                 : 1h 50mn
Bit rate mode                            : Constant
Bit rate                                 : 640 Kbps
Channel(s)                               : 6 channels
Channel positions                        : Front: L C R, Side: L R, LFE
Sampling rate                            : 48.0 KHz
Bit depth                                : 16 bits
Compression mode                         : Lossy
Stream size                              : 507 MiB (6%)
Language                                 : English
Default                                  : No
Forced                                   : No

Text
ID                                       : 4
Format                                   : UTF-8
Codec ID                                 : S_TEXT/UTF8
Codec ID/Info                            : UTF-8 Plain Text
Language                                 : German
Default                                  : Yes
Forced                                   : Yes


Download:
Share Online Share OnlineShare OnlineShare Online
 

Kommentare