DNS SERVER AENDERNum der staatlichen Zensur zu umgehen. Sollten wir von eurem Provider geseprrt werden, nutzt den TOR BROWSER oder ändert euren DNS SERVER.

Filmwünsche können bei uns im Forum abgegeben werden

Wir Speichern Nicht




 
 
 
Top Releases
Terminator.Genisys.Fancut.20...
Unsane.Ausgeliefert.2018.Ger...
Unsane.Ausgeliefert.2018.Ger...
Revenge.2017.German.1080p.Bl...
Revenge.2017.German.720p.Blu...
Revenge.2017.MULTi.COMPLETE....
Hagazussa.Der.Hexenfluch.201...
Ready.Player.One.2018.MULTi....
Moonwalkers.2015.German.AC3....
I.Tonya.2017.DUAL.COMPLETE.B...

Cinedubs
Deadpool.2.2018.Super.Duper....
Deadpool.2.2018.Super.Duper....
Die.Farbe.des.Horizonts.2018...
Die.Farbe.des.Horizonts.2018...
Catch.Me.2018.GERMAN.DL.AC3....
Catch.Me.2018.GERMAN.DL.AC3....
Deadpool.2.Super.Duper.Cut.2...
Deadpool.2.2018.German.AC3D....
Skyscraper.2018.German.AC3LD...
Skyscraper.2018.GERMAN.DL.AC...

Neuerscheinungen 2017-18
Criminal.Squad.THEATRICAL.20...
Criminal.Squad.THEATRICAL.20...
Criminal.Squad.THEATRICAL.20...
Criminal.Squad.THEATRICAL.20...
Action.Point.2018.German.AC3...
A.Thought.of.Ecstasy.2017.Ge...
A.Thought.of.Ecstasy.2017.Ge...
The.Package.2018.GERMAN.720p...
Norma.Rae.1979.MULTi.COMPLET...
Hagazussa.Der.Hexenfluch.201...

XXX
IKnowThatGirl.18.08.11.Maya....
CumEatingCuckOlds.18.08.10.L...
AssholeFever.18.08.11.Shona....
21EroticAnal.18.08.11.Nicole...
JapanHDV.18.08.11.Yuri.Sakur...
FakeHostel.18.08.11.Nesty.XX...
ATKGirlfriends.18.08.11.Athe...
AllOver30.18.08.11.Anna.Moor...
FTVGirls.18.08.11.Jody.Very....
FreakMobMedia.18.03.16.Dani....
BrazzersExxtra.18.08.11.Kiki...
CumEatingCuckOlds.18.07.27.M...
FakehubOriginals.18.08.11.Al...
Anilos.18.08.11.Amber.West.O...
FreakMobMedia.18.03.08.Marcy...
Hustler.18.08.11.Aurora.Wint...
JulesJordan.18.08.11.Zoe.Blo...
ClubSeventeen.18.08.11.Angel...
ImmoralLive.18.08.11.Cherry....
AuntJudys.18.08.10.Grace.Mas...

3D
Winter.Games.3D.2013.DUAL.CO...
Tomb.Raider.3D.2018.German.7...
Rampage.Big.Meets.Bigger.3D....
Rampage.Big.Meets.Bigger.3D....
Tomb.Raider.3D.2018.MULTi.CO...
Pacific.Rim.Uprising.3D.2018...
Ready.Player.One.3D.2018.Ger...
Rampage.-.Big.Meets.Bigger.2...
Ready.Player.One.2018.3D.HOU...
Ready.Player.One.2018.3D.HSB...
Ready.Player.One.3D.2018.MUL...
Black.Panther.3D.2018.MULTI....
Black.Panther.3D.HOU.2018.Ge...
Black.Panther.3D.HSBS.2018.G...
Best.of.3D.vol.04.-.06.GERMA...

Old_Stuff
Meine.liebe.Rabenmutter.germ...
Da.Vincis.Demons.S01.Complet...
Eragon.Das.Vermaechtnis.der....
Adele.und.das.Geheimnis.des....
Die.fabelhafte.Welt.der.Amel...
Haus.des.Geldes.S01.German.M...
How.I.Met.Your.Mother.S01.Ge...
The.Dark.Knight.Rises.2012.M...
Weissensee.S03.2015.GERMAN.C...
Weissensee.S01+S02.2010.GERM...
Die.Unglaublichen.-.The.Incr...
Der.grosse.Trick.1978.German...
Sully.2016.MULTi.COMPLETE.BL...
Tremors.3.Die.neue.Brut.2001...
Die.Indianer.von.Cleveland.2...

Filme
Predators.2010.German.DTS.DL...
Der.Einsatz.aka.The.Recruit....
Ring.2.2005.Unrated.German.A...
Avengers.3.Infinity.War.Germ...
Das.unsichtbare.Netz.1954.Ge...
Das.unsichtbare.Netz.1954.Ge...
To.Wong.Foo.thanks.for.Every...
To.Wong.Foo.thanks.for.Every...
The.New.Big.Boss.1997.German...
The.Nesting.Haus.des.Grauens...
Predator.2.1990.German.DTS.D...
Der.Retorten-Goliath.1975.Ge...
Der.Retorten-Goliath.1975.Ge...
Cocktail.fuer.eine.Leiche.19...
Peter.Hase.2018.German.DL.21...
Shooter.S03.GERMAN.DUBBED.DL...
Shooter.S03.GERMAN.DUBBED.DL...
Die.Simpsons.S29.GERMAN.DUBB...
Die.Simpsons.S29.GERMAN.DUBB...
MacGyver.S02.German.HDTV.108...
DCs.Legends.of.Tomorrow.S03....
Better.Call.Saul.S04.German....
Predator.1987.German.DL.2160...
Norma.Rae.1979.GERMAN.DL.DTS...

 
 
Bestseller.1987.GERMAN.AC3D.DL.1080p.BluRay.x264-COOLHD
Jahr: 1987
Genre: Action, Drama
Sprache: Deutsch AC3 | Englisch AC3
Laufzeit: 1h 31mn
Bitrate: 11.9 Mbps
Format: MKV
Größe: 7.59 GiB
Release:

Beschreibung:

Der Profikiller Cleve schlägt dem langjährigen Polizisten Dennis Meechum vor, ein Buch mit dem authentischen Bericht von seiner mörderischen Karriere zu schreiben. Cleve will auf diese Weise mit seinem früheren Auftraggeber, dem angesehenen Großindustriellen Madlock, abrechnen. Meechums Interesse flaut ab, als der in Cleve jenen maskierten Räuber erkennt, der ihn vor Jahren niedergeschossen hat. Da entführt Madlock aus Angst vor den Enthüllungen Meechums Tochter. Cleve stirbt beim Versuch, sie zu befreien. Meechum verhaftet Madlock und schreibt seinen Bestseller.



Complete name                            : coolhd-bestseller-1080p.mkv
Format                                   : Matroska
Format version                           : Version 4 / Version 2
File size                                : 7.59 GiB
Duration                                 : 1h 31mn
Overall bit rate                         : 11.9 Mbps
Movie name                               : COOLHD
Encoded date                             : UTC 2016-08-13 14:32:45
Writing application                      : mkvmerge v8.1.0 ('Psychedelic Postcard') 64bit
Writing library                          : libebml v1.3.1 + libmatroska v1.4.2
DURATION                                 : 01:31:31.648000000
NUMBER_OF_FRAMES                         : 171614
NUMBER_OF_BYTES                          : 263599104
_STATISTICS_WRITING_APP                  : mkvmerge v8.1.0 ('Psychedelic Postcard') 64bit
_STATISTICS_WRITING_DATE_UTC             : 2016-08-13 14:32:45
_STATISTICS_TAGS                         : BPS DURATION NUMBER_OF_FRAMES NUMBER_OF_BYTES

Video
ID                                       : 1
Format                                   : AVC
Format/Info                              : Advanced Video Codec
Format profile                           : High@L4.1
Format settings, CABAC                   : Yes
Format settings, ReFrames                : 4 frames
Codec ID                                 : V_MPEG4/ISO/AVC
Duration                                 : 1h 31mn
Bit rate                                 : 10.7 Mbps
Width                                    : 1 920 pixels
Height                                   : 1 040 pixels
Display aspect ratio                     : 1.85:1
Frame rate mode                          : Constant
Frame rate                               : 25.000 fps
Original frame rate                      : 23.976 fps
Color space                              : YUV
Chroma subsampling                       : 4:2:0
Bit depth                                : 8 bits
Scan type                                : Progressive
Bits/(Pixel*Frame)                       : 0.213
Stream size                              : 6.95 GiB (92%)
Writing library                          : x264 core 148 r2705 3f5ed56
Encoding settings                        : cabac=1 / ref=4 / deblock=1:-3:-3 / analyse=0x3:0x113 / me=umh / subme=8 / psy=1 / psy_rd=1.00:0.25 / mixed_ref=1 / me_range=24 / chroma_me=1 / trellis=1 / 8x8dct=1 / cqm=0 / deadzone=21,11 / fast_pskip=1 / chroma_qp_offset=-4 / threads=24 / lookahead_threads=4 / sliced_threads=0 / nr=0 / decimate=1 / interlaced=0 / bluray_compat=0 / constrained_intra=0 / bframes=3 / b_pyramid=2 / b_adapt=2 / b_bias=0 / direct=3 / weightb=1 / open_gop=0 / weightp=2 / keyint=240 / keyint_min=24 / scenecut=40 / intra_refresh=0 / rc_lookahead=50 / rc=2pass / mbtree=1 / bitrate=10655 / ratetol=1.0 / qcomp=0.60 / qpmin=0 / qpmax=69 / qpstep=4 / cplxblur=20.0 / qblur=0.5 / ip_ratio=1.40 / aq=1:0.50
Default                                  : Yes
Forced                                   : No
DURATION                                 : 01:31:31.600000000
NUMBER_OF_FRAMES                         : 137290
NUMBER_OF_BYTES                          : 7623744256
_STATISTICS_WRITING_APP                  : mkvmerge v8.1.0 ('Psychedelic Postcard') 64bit
_STATISTICS_WRITING_DATE_UTC             : 2016-08-13 14:32:45
_STATISTICS_TAGS                         : BPS DURATION NUMBER_OF_FRAMES NUMBER_OF_BYTES

Audio #1
ID                                       : 2
Format                                   : AC-3
Format/Info                              : Audio Coding 3
Mode extension                           : CM (complete main)
Format settings, Endianness              : Big
Codec ID                                 : A_AC3
Duration                                 : 1h 31mn
Bit rate mode                            : Constant
Bit rate                                 : 384 Kbps
Channel(s)                               : 2 channels
Channel positions                        : Front: L R
Sampling rate                            : 48.0 KHz
Bit depth                                : 16 bits
Compression mode                         : Lossy
Stream size                              : 251 MiB (3%)
Language                                 : German
Default                                  : Yes
Forced                                   : No

Audio #2
ID                                       : 3
Format                                   : AC-3
Format/Info                              : Audio Coding 3
Mode extension                           : CM (complete main)
Format settings, Endianness              : Big
Codec ID                                 : A_AC3
Duration                                 : 1h 31mn
Bit rate mode                            : Constant
Bit rate                                 : 384 Kbps
Channel(s)                               : 2 channels
Channel positions                        : Front: L R
Sampling rate                            : 48.0 KHz
Bit depth                                : 16 bits
Compression mode                         : Lossy
Stream size                              : 251 MiB (3%)
Language                                 : English
Default                                  : No
Forced                                   : No



Download:
Share Online Share OnlineShare OnlineShare Online
 

Kommentare