DNS SERVER AENDERNum der staatlichen Zensur zu umgehen. Sollten wir von eurem Provider geseprrt werden, nutzt den TOR BROWSER oder ändert euren DNS SERVER.

Filmwünsche können bei uns im Forum abgegeben werden

Wir Speichern Nicht




 
 
 
Top Releases
Terminator.Genisys.Fancut.20...
Unsane.Ausgeliefert.2018.Ger...
Unsane.Ausgeliefert.2018.Ger...
Revenge.2017.German.1080p.Bl...
Revenge.2017.German.720p.Blu...
Revenge.2017.MULTi.COMPLETE....
Hagazussa.Der.Hexenfluch.201...
Ready.Player.One.2018.MULTi....
Moonwalkers.2015.German.AC3....
I.Tonya.2017.DUAL.COMPLETE.B...

Cinedubs
Deadpool.2.2018.Super.Duper....
Deadpool.2.2018.Super.Duper....
Die.Farbe.des.Horizonts.2018...
Die.Farbe.des.Horizonts.2018...
Catch.Me.2018.GERMAN.DL.AC3....
Catch.Me.2018.GERMAN.DL.AC3....
Deadpool.2.Super.Duper.Cut.2...
Deadpool.2.2018.German.AC3D....
Skyscraper.2018.German.AC3LD...
Skyscraper.2018.GERMAN.DL.AC...

Neuerscheinungen 2017-18
Criminal.Squad.THEATRICAL.20...
Criminal.Squad.THEATRICAL.20...
Criminal.Squad.THEATRICAL.20...
Criminal.Squad.THEATRICAL.20...
Action.Point.2018.German.AC3...
A.Thought.of.Ecstasy.2017.Ge...
A.Thought.of.Ecstasy.2017.Ge...
The.Package.2018.GERMAN.720p...
Norma.Rae.1979.MULTi.COMPLET...
Hagazussa.Der.Hexenfluch.201...

XXX
IKnowThatGirl.18.08.11.Maya....
CumEatingCuckOlds.18.08.10.L...
AssholeFever.18.08.11.Shona....
21EroticAnal.18.08.11.Nicole...
JapanHDV.18.08.11.Yuri.Sakur...
FakeHostel.18.08.11.Nesty.XX...
ATKGirlfriends.18.08.11.Athe...
AllOver30.18.08.11.Anna.Moor...
FTVGirls.18.08.11.Jody.Very....
FreakMobMedia.18.03.16.Dani....
BrazzersExxtra.18.08.11.Kiki...
CumEatingCuckOlds.18.07.27.M...
FakehubOriginals.18.08.11.Al...
Anilos.18.08.11.Amber.West.O...
FreakMobMedia.18.03.08.Marcy...
Hustler.18.08.11.Aurora.Wint...
JulesJordan.18.08.11.Zoe.Blo...
ClubSeventeen.18.08.11.Angel...
ImmoralLive.18.08.11.Cherry....
AuntJudys.18.08.10.Grace.Mas...

3D
Winter.Games.3D.2013.DUAL.CO...
Tomb.Raider.3D.2018.German.7...
Rampage.Big.Meets.Bigger.3D....
Rampage.Big.Meets.Bigger.3D....
Tomb.Raider.3D.2018.MULTi.CO...
Pacific.Rim.Uprising.3D.2018...
Ready.Player.One.3D.2018.Ger...
Rampage.-.Big.Meets.Bigger.2...
Ready.Player.One.2018.3D.HOU...
Ready.Player.One.2018.3D.HSB...
Ready.Player.One.3D.2018.MUL...
Black.Panther.3D.2018.MULTI....
Black.Panther.3D.HOU.2018.Ge...
Black.Panther.3D.HSBS.2018.G...
Best.of.3D.vol.04.-.06.GERMA...

Old_Stuff
Meine.liebe.Rabenmutter.germ...
Da.Vincis.Demons.S01.Complet...
Eragon.Das.Vermaechtnis.der....
Adele.und.das.Geheimnis.des....
Die.fabelhafte.Welt.der.Amel...
Haus.des.Geldes.S01.German.M...
How.I.Met.Your.Mother.S01.Ge...
The.Dark.Knight.Rises.2012.M...
Weissensee.S03.2015.GERMAN.C...
Weissensee.S01+S02.2010.GERM...
Die.Unglaublichen.-.The.Incr...
Der.grosse.Trick.1978.German...
Sully.2016.MULTi.COMPLETE.BL...
Tremors.3.Die.neue.Brut.2001...
Die.Indianer.von.Cleveland.2...

Filme
Predators.2010.German.DTS.DL...
Der.Einsatz.aka.The.Recruit....
Ring.2.2005.Unrated.German.A...
Avengers.3.Infinity.War.Germ...
Das.unsichtbare.Netz.1954.Ge...
Das.unsichtbare.Netz.1954.Ge...
To.Wong.Foo.thanks.for.Every...
To.Wong.Foo.thanks.for.Every...
The.New.Big.Boss.1997.German...
The.Nesting.Haus.des.Grauens...
Predator.2.1990.German.DTS.D...
Der.Retorten-Goliath.1975.Ge...
Der.Retorten-Goliath.1975.Ge...
Cocktail.fuer.eine.Leiche.19...
Peter.Hase.2018.German.DL.21...
Shooter.S03.GERMAN.DUBBED.DL...
Shooter.S03.GERMAN.DUBBED.DL...
Die.Simpsons.S29.GERMAN.DUBB...
Die.Simpsons.S29.GERMAN.DUBB...
MacGyver.S02.German.HDTV.108...
DCs.Legends.of.Tomorrow.S03....
Better.Call.Saul.S04.German....
Predator.1987.German.DL.2160...
Norma.Rae.1979.GERMAN.DL.DTS...

 
 
Tarzan.1999.German.AC3.DL.1080p.BluRay.x265-FuN
Jahr: 1999
Genre: Zeichentrick | Abenteuer | Familie
Sprache: Deutsch AC3 | Englisch AC3
Laufzeit: 1h 28mn
Bitrate: 2 610 Kbps
Format: MKV
Größe: 1.61 GiB
Release:

Beschreibung:

Tarzan wächst trotz des Widerwillens des Anführers Kerchak, bei der Gorilladame Kala auf, da er sonst nach der Ermordung seiner Eltern völlig hilflos wäre. Er wird zu einem mächtigen Mann und lebt zusammen mit seinen Affenfreunden. Die Idylle wird jedoch getrübt, als Professor Porter mit seiner Tochter und dem Expeditionsleiter Clayton in den Dschungel kommt. Während der Professor jedoch nur an der Forschung interessiert ist, verfolgt Clayton einen hinterhältigen Plan: Er will alle Gorillas ausrotten. Doch dies wird Tarzan auf keinen Fall zulassen




Format                                   : Matroska
Format version                           : Version 4 / Version 2
File size                                : 1.61 GiB
Duration                                 : 1h 28mn
Overall bit rate                         : 2 610 Kbps
Encoded date                             : UTC 2018-04-13T23:03:22Z
Writing application                      : HandBrake 1.0.7 2017040900
Writing library                          : Lavf57.7.2

Video
ID                                       : 1
Format                                   : HEVC
Format/Info                              : High Efficiency Video Coding
Format profile                           : Main@L4.0
Codec ID                                 : V_MPEGH/ISO/HEVC
Duration                                 : 1h 28mn
Bit rate                                 : 1 791 Kbps
Width                                    : 1 920 pixels
Height                                   : 1 080 pixels
Display aspect ratio                     : 16:9
Frame rate mode                          : Constant
Frame rate                               : 23.976 fps
Color space                              : YUV
Chroma subsampling                       : 4:2:0
Bit depth                                : 8 bits
Bits/(Pixel*Frame)                       : 0.036
Stream size                              : 1.11 GiB (69%)
Writing library                          : x265 2.1:[Windows][GCC 5.3.1][64 bit] 8bit
Encoding settings                        : wpp / ctu=64 / min-cu-size=8 / max-tu-size=32 / tu-intra-depth=1 / tu-inter-depth=1 / me=1 / subme=2 / merange=57 / no-rect / no-amp / max-merge=2 / temporal-mvp / no-early-skip / rskip / rdpenalty=0 / no-tskip / no-tskip-fast / no-strong-intra-smoothing / no-lossless / no-cu-lossless / no-constrained-intra / no-fast-intra / open-gop / no-temporal-layers / interlace=0 / keyint=240 / min-keyint=24 / scenecut=40 / rc-lookahead=20 / lookahead-slices=6 / bframes=4 / bframe-bias=0 / b-adapt=2 / ref=3 / limit-refs=3 / no-limit-modes / weightp / no-weightb / aq-mode=1 / qg-size=32 / aq-strength=1.00 / cbqpoffs=0 / crqpoffs=0 / rd=3 / psy-rd=2.00 / rdoq-level=0 / psy-rdoq=0.00 / log2-max-poc-lsb=8 / no-rd-refine / signhide / deblock=0:0 / no-sao / no-sao-non-deblock / b-pyramid / cutree / no-intra-refresh / rc=crf / crf=23.0 / qcomp=0.60 / qpmin=0 / qpmax=69 / qpstep=4 / ipratio=1.40 / pbratio=1.30
Default                                  : Yes
Forced                                   : No

Audio #1
ID                                       : 2
Format                                   : AC-3
Format/Info                              : Audio Coding 3
Mode extension                           : CM (complete main)
Format settings, Endianness              : Big
Codec ID                                 : A_AC3
Duration                                 : 1h 28mn
Bit rate mode                            : Constant
Bit rate                                 : 384 Kbps
Channel(s)                               : 6 channels
Channel positions                        : Front: L C R, Side: L R, LFE
Sampling rate                            : 48.0 KHz
Bit depth                                : 16 bits
Compression mode                         : Lossy
Delay relative to video                  : -5ms
Stream size                              : 243 MiB (15%)
Title                                    : Surround
Language                                 : German
Default                                  : Yes
Forced                                   : No

Audio #2
ID                                       : 3
Format                                   : AC-3
Format/Info                              : Audio Coding 3
Mode extension                           : CM (complete main)
Format settings, Endianness              : Big
Codec ID                                 : A_AC3
Duration                                 : 1h 28mn
Bit rate mode                            : Constant
Bit rate                                 : 384 Kbps
Channel(s)                               : 6 channels
Channel positions                        : Front: L C R, Side: L R, LFE
Sampling rate                            : 48.0 KHz
Bit depth                                : 16 bits
Compression mode                         : Lossy
Delay relative to video                  : -5ms
Stream size                              : 243 MiB (15%)
Title                                    : Surround
Language                                 : English
Default                                  : No
Forced                                   : No

Text #1
ID                                       : 4
Format                                   : PGS
Codec ID                                 : S_HDMV/PGS
Codec ID/Info                            : The same subtitle format used on BDs/HD-DVDs
Language                                 : German
Default                                  : No
Forced                                   : No

Text #2
ID                                       : 5
Format                                   : PGS
Codec ID                                 : S_HDMV/PGS
Codec ID/Info                            : The same subtitle format used on BDs/HD-DVDs
Language                                 : English
Default                                  : No
Forced                                   : No



Download:
Share Online Share OnlineShare OnlineShare Online
 

Kommentare