HD-AREA wünscht Euch eine besinnliche Weihnachtszeit ;)

DNS SERVER AENDERNum der staatlichen Zensur zu umgehen. Sollten wir von eurem Provider geseprrt werden, nutzt den TOR BROWSER oder ändert euren DNS SERVER.

Filmwünsche können bei uns im Forum abgegeben werden

Wir Speichern Nicht




 
 
 
Top Releases
Braven.2018.GERMAN.DL.1080p....
Braven.2018.GERMAN.720p.BluR...
Mary.und.die.Blume.der.Hexen...
Mary.und.die.Blume.der.Hexen...
Braven.2018.MULTI.COMPLETE.B...
Paradox.Kill.Zone.Bangkok.20...
Mary.und.die.Blume.der.Hexen...
The.Bouncer.2018.German.DL.1...
Kodachrome.2017.German.AC3D....
Operation.Finale.2018.German...

Cinedubs
Venom.German.DL.AC3.Dubbed.1...
Venom.2018.German.AC3D.5.1.D...
Venom.2018.German.AC3D.5.1.D...
Das.krumme.Haus.2017.GERMAN....
Das.krumme.Haus.2017.GERMAN....
I.Still.See.You.Sie.lassen.d...
I.Still.See.You.Sie.lassen.d...
Braven.2018.German.AC3D.DL.1...
Braven.2018.German.AC3D.DL.7...
Smallfoot.Ein.eisigartiges.A...

Neuerscheinungen 2017-18
Das.Grab.der.Lygeia.The.Tomb...
Jesse.James.Mann.ohne.Gesetz...
Robur.Der.Herr.der.sieben.Ko...
Bleeder.1999.MULTi.COMPLETE....
Hoere.die.Stille.Der.Schreck...
Die.Supermonster.und.der.Wun...
Die.Supermonster.und.der.Wun...
Zoe.und.Raven.Es.weihnachtet...
Zoe.und.Raven.Es.weihnachtet...
Even.Lovers.Get.the.Blues.20...

XXX
Deep.Teen.Throat.17.XXX.1080...
Deep.Teen.Throat.17.XXX.720p...
GirlsOutWest.18.12.02.Daliah...
GirlsWay.18.12.02.Kenna.Jame...
ATKGirlfriends.18.12.03.Nikk...
GirlsWay.18.12.03.Zoey.Foxx....
FitnessRooms.18.12.03.Ashley...
GroupSexGames.18.11.25.Ann.M...
ATKHairy.18.12.03.Isabel.Ste...
GermanGooGirls.18.12.02.Ria....
GirlsGoneWild.18.11.29.Lexi....
Fitting-Room.18.12.01.Little...
ATKHairy.18.12.02.Pearl.Sage...
GirlsOutWest.18.12.03.Tash.T...
FatManFuck.17.09.22.Sophia.X...
FemJoy.18.12.01.Sasha.C.An.A...
FatManFuck.17.09.22.Skyler.S...
FamilyLust.18.11.24.Keilani....
GirlsGonePink.18.12.03.Madis...
GirlsGoneWild.18.11.26.Eden....

3D
Gans.im.Glueck.3D.2018.MULTi...
The.Art.of.Flight.3D.2011.Ge...
The.End.Of.The.World.3D.2010...
The.First.Avenger.Civil.War....
Die.Unglaublichen.2.2018.3D....
Skyscraper.3D.2018.MULTi.COM...
Ant-Man.And.The.Wasp.3D.2018...
Ant.Man.and.the.Wasp.3D.2018...
Die.Unglaublichen.2.3D.2018....
Die.Unglaublichen.2.2018.3D....
Die.Unglaublichen.2.2018.3D....
Sharknado.6.The.Last.One.3D....
Deep.Kleine.Helden.der.Tiefs...
Deep.3D.2017.MULTI.COMPLETE....
Detective.Dee.und.die.Legend...

Old_Stuff
Akte.X.S04.German.DTS.DL.108...
Akte.X.S03.German.DTS.DL.108...
Dunkirk.1958.COMPLETE.BLURAY...
Das.Wunder.von.Manhattan.199...
The.Amazing.Spiderman.2.Rise...
Rise.of.the.Predator.2014.Ge...
Detective.Dee.und.das.Geheim...
Detective.Dee.Und.Der.Fluch....
Ghost.Rider.Spirit.of.Vengea...
Species.IV.Das.Erwachen.2007...
Species.IV.Das.Erwachen.2007...
Hotel.Transsilvanien.2012.Ge...
The.Dead.2010.German.DL.1080...
The.Dead.2.India.2013.German...
Britney.Spears.Live.The.Femm...

Filme
Die.Konferenz.Wie.der.Holoca...
Die.Kleinen.und.die.Boesen.2...
Zombie.Strippers.2008.German...
Superman.1978.German.AC3.DL....
Kraftwerk.Pop.Art.2013.Germa...
Magda.Goebbels.Hitlers.First...
JFK.Der.letzte.Tag.2017.Germ...
Next.Door.Zur.Hoelle.mit.den...
Das.Ding.aus.einer.anderen.W...
Blindspot.S03.COMPLETE.Germa...
Blindspot.S03.COMPLETE.Germa...
Die.Rueckkehr.der.Maerchenbr...
Madman.1981.German.DL.1080p....
Pony.Express.1953.German.DL....
Pony.Express.1953.German.720...
Mystic.River.2003.German.DL....
Ray.Donovan.S06.GERMAN.DUBBE...
Ray.Donovan.S06.GERMAN.DUBBE...
Bleeder.1999.German.720p.Blu...
Paratrooper.GERMAN.1988.DL.7...
American.Horror.Story.S08.GE...
American.Horror.Story.S08.GE...
Quantico.S03.GERMAN.DUBBED.7...
Outlander.S04.German.DD51.DL...

 
 
Hannibal.2001.German.AC3D.DL.1080p.JAP.BluRay.x265-FuN
Jahr: 2001
Genre: Krimi | Drama | Thriller
Sprache: Deutsch AC3 | Englisch AC3
Laufzeit: 2h 11mn
Bitrate: 2 481 Kbps
Format: MKV
Größe: 2.28 GiB
Release:

Beschreibung:

FBI-Agentin Clarice Starling (J. Moore) erhält einen Anruf von Dr. Hannibal Lecter (Sir A. Hopkins), der nach seinem Aufenthalt in Florenz, Italien, in die USA zurückgekehrt ist. In Italien wurde sein Aufenthaltsort von einem Polizisten an den Milliardär Mason Verger (G. Oldman) verraten, den Lecter seinerzeit dazu zwang, sich sein Gesicht zu zerschneiden. Verger setzt seine Leute auf Lecter an und es gelingt ihnen, den Psychopathen zu kidnappen. Starling macht sich auf die Suche nach Lecter...




Format                                   : Matroska
Format version                           : Version 4 / Version 2
File size                                : 2.28 GiB
Duration                                 : 2h 11mn
Overall bit rate                         : 2 481 Kbps
Encoded date                             : UTC 2018-02-01T15:33:15Z
Writing application                      : HandBrake 1.0.7 2017040900
Writing library                          : Lavf57.7.2

Video
ID                                       : 1
Format                                   : HEVC
Format/Info                              : High Efficiency Video Coding
Format profile                           : Main@L4.0
Codec ID                                 : V_MPEGH/ISO/HEVC
Duration                                 : 2h 11mn
Bit rate                                 : 1 664 Kbps
Width                                    : 1 920 pixels
Height                                   : 1 040 pixels
Display aspect ratio                     : 1.85:1
Frame rate mode                          : Constant
Frame rate                               : 23.976 fps
Color space                              : YUV
Chroma subsampling                       : 4:2:0
Bit depth                                : 8 bits
Bits/(Pixel*Frame)                       : 0.035
Stream size                              : 1.53 GiB (67%)
Writing library                          : x265 2.1:[Windows][GCC 5.3.1][64 bit] 8bit
Encoding settings                        : wpp / ctu=64 / min-cu-size=8 / max-tu-size=32 / tu-intra-depth=1 / tu-inter-depth=1 / me=1 / subme=2 / merange=57 / no-rect / no-amp / max-merge=2 / temporal-mvp / no-early-skip / rskip / rdpenalty=0 / no-tskip / no-tskip-fast / no-strong-intra-smoothing / no-lossless / no-cu-lossless / no-constrained-intra / no-fast-intra / open-gop / no-temporal-layers / interlace=0 / keyint=240 / min-keyint=24 / scenecut=40 / rc-lookahead=20 / lookahead-slices=6 / bframes=4 / bframe-bias=0 / b-adapt=2 / ref=3 / limit-refs=3 / no-limit-modes / weightp / no-weightb / aq-mode=1 / qg-size=32 / aq-strength=1.00 / cbqpoffs=0 / crqpoffs=0 / rd=3 / psy-rd=2.00 / rdoq-level=0 / psy-rdoq=0.00 / log2-max-poc-lsb=8 / no-rd-refine / signhide / deblock=0:0 / no-sao / no-sao-non-deblock / b-pyramid / cutree / no-intra-refresh / rc=crf / crf=23.0 / qcomp=0.60 / qpmin=0 / qpmax=69 / qpstep=4 / ipratio=1.40 / pbratio=1.30
Default                                  : Yes
Forced                                   : No

Audio #1
ID                                       : 2
Format                                   : AC-3
Format/Info                              : Audio Coding 3
Mode extension                           : CM (complete main)
Format settings, Endianness              : Big
Codec ID                                 : A_AC3
Duration                                 : 2h 11mn
Bit rate mode                            : Constant
Bit rate                                 : 384 Kbps
Channel(s)                               : 6 channels
Channel positions                        : Front: L C R, Side: L R, LFE
Sampling rate                            : 48.0 KHz
Bit depth                                : 16 bits
Compression mode                         : Lossy
Delay relative to video                  : -5ms
Stream size                              : 361 MiB (15%)
Title                                    : Surround
Language                                 : German
Default                                  : Yes
Forced                                   : No

Audio #2
ID                                       : 3
Format                                   : AC-3
Format/Info                              : Audio Coding 3
Mode extension                           : CM (complete main)
Format settings, Endianness              : Big
Codec ID                                 : A_AC3
Duration                                 : 2h 11mn
Bit rate mode                            : Constant
Bit rate                                 : 384 Kbps
Channel(s)                               : 6 channels
Channel positions                        : Front: L C R, Side: L R, LFE
Sampling rate                            : 48.0 KHz
Bit depth                                : 16 bits
Compression mode                         : Lossy
Delay relative to video                  : -5ms
Stream size                              : 361 MiB (15%)
Title                                    : Surround
Language                                 : English
Default                                  : No
Forced                                   : No

Text #1
ID                                       : 4
Format                                   : PGS
Codec ID                                 : S_HDMV/PGS
Codec ID/Info                            : The same subtitle format used on BDs/HD-DVDs
Language                                 : German
Default                                  : No
Forced                                   : No

Text #2
ID                                       : 5
Format                                   : PGS
Codec ID                                 : S_HDMV/PGS
Codec ID/Info                            : The same subtitle format used on BDs/HD-DVDs
Language                                 : English
Default                                  : No
Forced                                   : No



Download:
Share Online Share OnlineShare OnlineShare Online
 

Kommentare