DNS SERVER AENDERNum der staatlichen Zensur zu umgehen. Sollten wir von eurem Provider geseprrt werden, nutzt den TOR BROWSER oder ändert euren DNS SERVER.

Filmwünsche können bei uns im Forum abgegeben werden

Wir Speichern Nicht




 
 
 
Top Releases
Batman.Ninja.2018.German.AC3...
Brain.on.Fire.2016.German.Du...
Brain.on.Fire.2016.German.Du...
The.Whiskey.Bandit.Allein.ge...
Loving.Vincent.2017.German.D...
Rise.of.the.Scythian.2018.Ge...
Der.geilste.Tag.2016.German....
Das.Leben.ist.ein.Fest.2017....
Central.Intelligence.EXTENDE...
Wind.River.2017.German.AC3.D...

Cinedubs
Ready.Player.One.2018.German...
Ready.Player.One.2018.German...
How.to.Party.with.Mom.2018.G...
How.to.Party.with.Mom.2018.G...
Ready.Player.One.German.DL.A...
Ready.Player.One.German.DL.A...
Rampage.2018.German.AC3D.DL....
Rampage.2018.German.AC3D.DL....
Tomb.Raider.2018.3D.HSBS.Ger...
Tomb.Raider.2018.3D.HOU.Germ...

Neuerscheinungen 2017-18
Gremlin.2017.German.1080p.HD...
Menschen.am.Fluss.The.River....
Wahrheit.oder.Pflicht.2018.G...
Die.gnadenlosen.Vier.Posse.f...
Die.Wall.Street.Verschwoerun...
Die.Wall.Street.Verschwoerun...
Die.Wall.Street.Verschwoerun...
The.Lodgers.2017.MULTI.COMPL...
Hilfe.ich.hab.meine.Eltern.g...
Hilfe.Ich.hab.meine.Eltern.g...

XXX
Fitting-Room.18.06.14.Melena...
PlumperPass.18.06.13.Curvy.Q...
Killergram.18.06.14.Masked.M...
CumPerfection.18.06.14.Melli...
DarkX.18.06.14.Gina.Valentin...
ExposedWhores.E208.Shavelle....
ExposedWhores.E207.Sheena.Ry...
Nubiles.18.06.14.Jia.Lissa.N...
Hustler.18.06.14.Kimber.Wood...
Bang.Glamkore.18.06.14.Aisli...
ExploitedCollegeGirls.18.06....
PetiteHDPorn.18.06.14.Molly....
MomXXX.18.06.14.Georgie.Lyal...
MyFriendsHotMom.18.06.14.Sar...
Anilos.18.06.14.Darla.Red.Li...
Nubiles.18.06.13.Sarah.Smith...
Its.OKay.Shes.My.Stepmother....
NubileFilms.18.06.13.Ember.S...
FamilyStrokes.18.06.14.Lily....
ExposedWhores.E159.Leanna.La...

3D
Tomb.Raider.2018.3D.COMPLETE...
Zombies.Ueberlebe.die.Untote...
Der.Dschungel.Der.Zauber.ein...
Penthouse.Presents.Sexy.Sing...
The.LEGO.Ninjago.Movie.3D.20...
Zombies.Ueberlebe.die.Untote...
Norwegen.3D.2013.GERMAN.DL.D...
Norwegen.3D.2013.GERMAN.DOKU...
Jumanji.Willkommen.im.Dschun...
Jumanji.Welcome.To.The.Jungl...
Abraham.Lincoln.Vampire.Hunt...
Norwegen.3D.2013.MULTi.COMPL...
Star.Wars.Episode.VIII.Die.l...
Star.Wars.Episode.VIII.Die.l...
Star.Wars.Episode.VIII.Die.l...

Old_Stuff
Weissensee.S03.2015.GERMAN.C...
Weissensee.S01+S02.2010.GERM...
Die.Unglaublichen.-.The.Incr...
Der.grosse.Trick.1978.German...
Sully.2016.MULTi.COMPLETE.BL...
Tremors.3.Die.neue.Brut.2001...
Die.Indianer.von.Cleveland.2...
Dealt.2017.1080p.AMZN.WEB-DL...
Dealt.2017.720p.AMZN.WEB-DL....
Roter.Staub.aka.The.Brave.On...
Roter.Staub.aka.The.Brave.On...
Magic.in.the.Moonlight.2014....
The.LEGO.Ninjago.Movie.2017....
Zeit.der.Zaertlichkeit.1983....
Zeit.der.Zaertlichkeit.1983....

Filme
Rampage.2009.German.DTSHD.DL...
Willard.1971.German.AC3.DL.1...
Blue.Valentine.German.DL.108...
Blue.in.the.Face.Alles.blaue...
The.Proposition.2005.German....
The.Flash.2014.S04.GERMAN.72...
Supergirl.S03.GERMAN.720p.HD...
Gotham.S04.GERMAN.720p.HDTV....
Scorpion.S04.GERMAN.DUBBED.D...
Boeing.Boeing.1965.German.AC...
Formel.1.Saison.2018.GERMAN....
Todfreunde.aka.Bad.Influence...
TinkerBell.und.die.Legende.v...
Dein.Schicksal.in.meiner.Han...
Dein.Schicksal.in.meiner.Han...
Entourage.2015.German.DL.108...
Die.Wilby-Verschwoerung.1975...
Die.Wilby-Verschwoerung.1975...
Die.Eiskoenigin.Voellig.unve...
Drag.Me.to.Hell.Unrated.Rema...
Evil.Dead.Die.Saat.Des.Boese...
Heute.bin.ich.Samba.2014.Ger...
Prinzessin.Mononoke.1997.Ger...
15.17.to.Paris.2018.German.D...

 
 
Ben.Aufstand.der.Ratten.german.1972.AC3D.DL.1080p.WebHD.x264-iND
Jahr: 1972
Genre: Horror
Sprache: Deutsch AC3 | Englisch AC3
Laufzeit: 1h 34mn
Bitrate: 7 778 Kbps
Format: MKV
Größe: 5.13 GiB
Release:

Beschreibung:

Danny, ein 10jähriger Junge hat sich mit Ben, einer Ratte, und einigen seiner Artgenossen angefreundet. Der ehrgeizige Inspektor Kirtland jedoch hat herausgefunden, daß Ben eine regelrechte Rattenarmee unter seinem Kommando zusammengeführt hat. Diese Bedrohung möchte er mit allen Mitteln bekämpfen, als er jedoch die Verbindung zwischen Ben und Danny entdeckt, überschlagen sich die Ereignisse...



Complete name                            : Ben.mkv
Format                                   : Matroska
Format version                           : Version 4 / Version 2
File size                                : 5.13 GiB
Duration                                 : 1h 34mn
Overall bit rate                         : 7 778 Kbps
Movie name                               : dubbed by tantchen
Encoded date                             : UTC 2018-06-12 19:15:15
Writing application                      : Lavf57.81.100
Writing library                          : Lavf57.81.100

Video
ID                                       : 1
Format                                   : AVC
Format/Info                              : Advanced Video Codec
Format profile                           : Main@L4.0
Format settings, CABAC                   : Yes
Format settings, ReFrames                : 4 frames
Codec ID                                 : V_MPEG4/ISO/AVC
Duration                                 : 1h 34mn
Bit rate                                 : 7 000 Kbps
Width                                    : 1 920 pixels
Height                                   : 1 080 pixels
Display aspect ratio                     : 16:9
Frame rate mode                          : Constant
Frame rate                               : 23.976 fps
Color space                              : YUV
Chroma subsampling                       : 4:2:0
Bit depth                                : 8 bits
Scan type                                : Progressive
Bits/(Pixel*Frame)                       : 0.141
Stream size                              : 4.52 GiB (88%)
Writing library                          : x264 core 142 r2479 dd79a61
Encoding settings                        : cabac=1 / ref=1 / deblock=1:-1:-1 / analyse=0x1:0x111 / me=hex / subme=2 / psy=1 / psy_rd=1.00:0.15 / mixed_ref=0 / me_range=16 / chroma_me=1 / trellis=0 / 8x8dct=0 / cqm=0 / deadzone=21,11 / fast_pskip=1 / chroma_qp_offset=0 / threads=6 / lookahead_threads=2 / sliced_threads=0 / nr=0 / decimate=1 / interlaced=0 / bluray_compat=0 / constrained_intra=0 / bframes=3 / b_pyramid=2 / b_adapt=1 / b_bias=0 / direct=1 / weightb=1 / open_gop=0 / weightp=1 / keyint=240 / keyint_min=24 / scenecut=40 / intra_refresh=0 / rc_lookahead=10 / rc=abr / mbtree=1 / bitrate=7000 / ratetol=1.0 / qcomp=0.60 / qpmin=0 / qpmax=69 / qpstep=4 / ip_ratio=1.40 / aq=1:1.00
Default                                  : Yes
Forced                                   : No
Color primaries                          : BT.709
Transfer characteristics                 : BT.709
Matrix coefficients                      : BT.709
DURATION                                 : 01:34:24.329000000

Audio #1
ID                                       : 2
Format                                   : AC-3
Format/Info                              : Audio Coding 3
Mode extension                           : CM (complete main)
Format settings, Endianness              : Big
Codec ID                                 : A_AC3
Duration                                 : 1h 34mn
Bit rate mode                            : Constant
Bit rate                                 : 384 Kbps
Channel(s)                               : 2 channels
Channel positions                        : Front: L R
Sampling rate                            : 48.0 KHz
Bit depth                                : 16 bits
Compression mode                         : Lossy
Delay relative to video                  : -10ms
Stream size                              : 259 MiB (5%)
Writing library                          : Lavc57.105.100 ac3_fixed
Language                                 : German
Default                                  : Yes
Forced                                   : No
DURATION                                 : 01:34:24.366000000

Audio #2
ID                                       : 3
Format                                   : AC-3
Format/Info                              : Audio Coding 3
Mode extension                           : CM (complete main)
Format settings, Endianness              : Big
Codec ID                                 : A_AC3
Duration                                 : 1h 34mn
Bit rate mode                            : Constant
Bit rate                                 : 384 Kbps
Channel(s)                               : 2 channels
Channel positions                        : Front: L R
Sampling rate                            : 48.0 KHz
Bit depth                                : 16 bits
Compression mode                         : Lossy
Delay relative to video                  : -88ms
Stream size                              : 259 MiB (5%)
Writing library                          : Lavc57.105.100 ac3_fixed
Language                                 : English
Default                                  : No
Forced                                   : No
DURATION                                 : 01:34:24.288000000

Text
ID                                       : 4
Format                                   : ASS
Codec ID                                 : S_TEXT/ASS
Codec ID/Info                            : Advanced Sub Station Alpha
Compression mode                         : Lossless
Writing library                          : Lavc57.105.100 ssa
Language                                 : English
Default                                  : No
Forced                                   : No


Download:
Share Online Share OnlineShare OnlineShare Online
 

Kommentare