DNS SERVER AENDERNum der staatlichen Zensur zu umgehen. Sollten wir von eurem Provider geseprrt werden, nutzt den TOR BROWSER oder ändert euren DNS SERVER.

Filmwünsche können bei uns im Forum abgegeben werden

Wir Speichern Nicht




 
 
 
Top Releases
Batman.Ninja.2018.German.AC3...
Brain.on.Fire.2016.German.Du...
Brain.on.Fire.2016.German.Du...
The.Whiskey.Bandit.Allein.ge...
Loving.Vincent.2017.German.D...
Rise.of.the.Scythian.2018.Ge...
Der.geilste.Tag.2016.German....
Das.Leben.ist.ein.Fest.2017....
Central.Intelligence.EXTENDE...
Wind.River.2017.German.AC3.D...

Cinedubs
Ready.Player.One.2018.German...
Ready.Player.One.2018.German...
How.to.Party.with.Mom.2018.G...
How.to.Party.with.Mom.2018.G...
Ready.Player.One.German.DL.A...
Ready.Player.One.German.DL.A...
Rampage.2018.German.AC3D.DL....
Rampage.2018.German.AC3D.DL....
Tomb.Raider.2018.3D.HSBS.Ger...
Tomb.Raider.2018.3D.HOU.Germ...

Neuerscheinungen 2017-18
Gremlin.2017.German.1080p.HD...
Menschen.am.Fluss.The.River....
Wahrheit.oder.Pflicht.2018.G...
Die.gnadenlosen.Vier.Posse.f...
Die.Wall.Street.Verschwoerun...
Die.Wall.Street.Verschwoerun...
Die.Wall.Street.Verschwoerun...
The.Lodgers.2017.MULTI.COMPL...
Hilfe.ich.hab.meine.Eltern.g...
Hilfe.Ich.hab.meine.Eltern.g...

XXX
ExposedWhores.E205.Soleil.Ma...
Fitting-Room.18.06.14.Melena...
PlumperPass.18.06.13.Curvy.Q...
Killergram.18.06.14.Masked.M...
CumPerfection.18.06.14.Melli...
DarkX.18.06.14.Gina.Valentin...
ExposedWhores.E208.Shavelle....
ExposedWhores.E207.Sheena.Ry...
Nubiles.18.06.14.Jia.Lissa.N...
Hustler.18.06.14.Kimber.Wood...
Bang.Glamkore.18.06.14.Aisli...
ExploitedCollegeGirls.18.06....
PetiteHDPorn.18.06.14.Molly....
MomXXX.18.06.14.Georgie.Lyal...
MyFriendsHotMom.18.06.14.Sar...
Anilos.18.06.14.Darla.Red.Li...
Nubiles.18.06.13.Sarah.Smith...
Its.OKay.Shes.My.Stepmother....
NubileFilms.18.06.13.Ember.S...
FamilyStrokes.18.06.14.Lily....

3D
Tomb.Raider.2018.3D.COMPLETE...
Zombies.Ueberlebe.die.Untote...
Der.Dschungel.Der.Zauber.ein...
Penthouse.Presents.Sexy.Sing...
The.LEGO.Ninjago.Movie.3D.20...
Zombies.Ueberlebe.die.Untote...
Norwegen.3D.2013.GERMAN.DL.D...
Norwegen.3D.2013.GERMAN.DOKU...
Jumanji.Willkommen.im.Dschun...
Jumanji.Welcome.To.The.Jungl...
Abraham.Lincoln.Vampire.Hunt...
Norwegen.3D.2013.MULTi.COMPL...
Star.Wars.Episode.VIII.Die.l...
Star.Wars.Episode.VIII.Die.l...
Star.Wars.Episode.VIII.Die.l...

Old_Stuff
Weissensee.S03.2015.GERMAN.C...
Weissensee.S01+S02.2010.GERM...
Die.Unglaublichen.-.The.Incr...
Der.grosse.Trick.1978.German...
Sully.2016.MULTi.COMPLETE.BL...
Tremors.3.Die.neue.Brut.2001...
Die.Indianer.von.Cleveland.2...
Dealt.2017.1080p.AMZN.WEB-DL...
Dealt.2017.720p.AMZN.WEB-DL....
Roter.Staub.aka.The.Brave.On...
Roter.Staub.aka.The.Brave.On...
Magic.in.the.Moonlight.2014....
The.LEGO.Ninjago.Movie.2017....
Zeit.der.Zaertlichkeit.1983....
Zeit.der.Zaertlichkeit.1983....

Filme
Rampage.2009.German.DTSHD.DL...
Willard.1971.German.AC3.DL.1...
Blue.Valentine.German.DL.108...
Blue.in.the.Face.Alles.blaue...
The.Proposition.2005.German....
The.Flash.2014.S04.GERMAN.72...
Supergirl.S03.GERMAN.720p.HD...
Gotham.S04.GERMAN.720p.HDTV....
Scorpion.S04.GERMAN.DUBBED.D...
Boeing.Boeing.1965.German.AC...
Formel.1.Saison.2018.GERMAN....
Todfreunde.aka.Bad.Influence...
TinkerBell.und.die.Legende.v...
Dein.Schicksal.in.meiner.Han...
Dein.Schicksal.in.meiner.Han...
Entourage.2015.German.DL.108...
Die.Wilby-Verschwoerung.1975...
Die.Wilby-Verschwoerung.1975...
Die.Eiskoenigin.Voellig.unve...
Drag.Me.to.Hell.Unrated.Rema...
Evil.Dead.Die.Saat.Des.Boese...
Heute.bin.ich.Samba.2014.Ger...
Prinzessin.Mononoke.1997.Ger...
15.17.to.Paris.2018.German.D...

 
 
Three.Billboards.Outside.Ebbing.Missouri.2017.German.AC3.DL.1080p.BluRay.x265-FuN
Jahr: 2017
Genre: Krimi | Drama
Sprache: Deutsch AC3 | Englisch AC3
Laufzeit: 1h 55mn
Bitrate: 1 668 Kbps
Format: MKV
Größe: 1.34 GiB
Release:

Beschreibung:

Die Tochter von Mildred Hayes (Frances McDormand) wurde vor Monaten ganz in der Nähe ihres Zuhauses vergewaltigt und ermordet, aber noch immer tut sich in dem Fall nichts. Von einem Hauptverdächtigen fehlt jedenfalls noch jede Spur und so langsam glaubt Mildred, dass die örtliche Polizei einfach ihre Arbeit nicht richtig macht. Und ganz anders als ihr Sohn Robbie (Lucas Hedges), der einfach nur sein Leben weiterleben möchte, kann sie das nicht akzeptieren. Darum lässt sie eines Tages an der Straße, die in ihren Heimatort Ebbing, Missouri führt, drei Werbetafeln mit provokanten Sprüchen aufstellen, die sich an Polizeichef William Willoughby (Woody Harrelson) richten. Klar, dass die Situation nicht lange friedlich bleibt. Als sich dann noch Officer Dixon (Sam Rockwell) einmischt, ein unreifes und gewalttätiges Muttersöhnchen, eskaliert die Lage…




Format                                   : Matroska
Format version                           : Version 4 / Version 2
File size                                : 1.34 GiB
Duration                                 : 1h 55mn
Overall bit rate                         : 1 668 Kbps
Encoded date                             : UTC 2018-05-22T12:38:57Z
Writing application                      : mkvmerge v10.0.0 ('To Drown In You') 64bit
Writing library                          : Lavf57.7.2
DURATION                                 : 01:51:32.682000000
NUMBER_OF_FRAMES                         : 1237
NUMBER_OF_BYTES                          : 5382260
_STATISTICS_WRITING_APP                  : mkvmerge v10.0.0 ('To Drown In You') 64bit
_STATISTICS_WRITING_DATE_UTC             : 2018-05-22 19:02:35
_STATISTICS_TAGS                         : BPS DURATION NUMBER_OF_FRAMES NUMBER_OF_BYTES

Video
ID                                       : 1
Format                                   : HEVC
Format/Info                              : High Efficiency Video Coding
Format profile                           : Main@L4.0
Codec ID                                 : V_MPEGH/ISO/HEVC
Duration                                 : 1h 55mn
Bit rate                                 : 867 Kbps
Width                                    : 1 920 pixels
Height                                   : 804 pixels
Display aspect ratio                     : 2.40:1
Frame rate mode                          : Constant
Frame rate                               : 23.976 fps
Color space                              : YUV
Chroma subsampling                       : 4:2:0
Bit depth                                : 8 bits
Bits/(Pixel*Frame)                       : 0.023
Stream size                              : 715 MiB (52%)
Writing library                          : x265 2.6:[Windows][GCC 7.2.0][64 bit] 8bit+10bit+12bit
Encoding settings                        : cpuid=1173503 / frame-threads=3 / numa-pools=8 / wpp / no-pmode / no-pme / no-psnr / no-ssim / log-level=2 / input-csp=1 / input-res=1920x804 / interlace=0 / total-frames=0 / level-idc=0 / high-tier=1 / uhd-bd=0 / ref=3 / no-allow-non-conformance / no-repeat-headers / annexb / no-aud / no-hrd / info / hash=0 / no-temporal-layers / open-gop / min-keyint=24 / keyint=240 / bframes=4 / b-adapt=2 / b-pyramid / bframe-bias=0 / rc-lookahead=20 / lookahead-slices=5 / scenecut=40 / no-intra-refresh / ctu=64 / min-cu-size=8 / no-rect / no-amp / max-tu-size=32 / tu-inter-depth=1 / tu-intra-depth=1 / limit-tu=0 / rdoq-level=0 / dynamic-rd=0.00 / no-ssim-rd / signhide / no-tskip / nr-intra=0 / nr-inter=0 / no-constrained-intra / no-strong-intra-smoothing / max-merge=2 / limit-refs=3 / no-limit-modes / me=1 / subme=2 / merange=57 / temporal-mvp / weightp / no-weightb / no-analyze-src-pics / deblock=0:0 / no-sao / no-sao-non-deblock / rd=3 / no-early-skip / rskip / no-fast-intra / no-tskip-fast / no-cu-lossless / no-b-intra / no-splitrd-skip / rdpenalty=0 / psy-rd=2.00 / psy-rdoq=0.00 / no-rd-refine / analysis-reuse-mode=0 / no-lossless / cbqpoffs=0 / crqpoffs=0 / rc=crf / crf=23.0 / qcomp=0.60 / qpstep=4 / stats-write=0 / stats-read=0 / ipratio=1.40 / pbratio=1.30 / aq-mode=1 / aq-strength=1.00 / cutree / zone-count=0 / no-strict-cbr / qg-size=32 / no-rc-grain / qpmax=69 / qpmin=0 / no-const-vbv / sar=1 / overscan=0 / videoformat=5 / range=0 / colorprim=1 / transfer=1 / colormatrix=1 / chromaloc=0 / display-window=0 / max-cll=0,0 / min-luma=0 / max-luma=255 / log2-max-poc-lsb=8 / vui-timing-info / vui-hrd-info / slices=1 / no-opt-qp-pps / no-opt-ref-list-length-pps / no-multi-pass-opt-rps / scenecut-bias=0.05 / no-opt-cu-delta-qp / no-aq-motion / no-hdr / no-hdr-opt / no-dhdr10-opt / analysis-reuse-level=5 / scale-factor=0 / refine-intra=0 / refine-inter=0 / refine-mv=0 / no-limit-sao / ctu-info=0 / no-lowpass-dct / refine-mv-type=0 / copy-pic=1
Default                                  : Yes
Forced                                   : No
DURATION                                 : 01:55:20.831000000
NUMBER_OF_FRAMES                         : 165934
NUMBER_OF_BYTES                          : 764712816
_STATISTICS_WRITING_APP                  : mkvmerge v10.0.0 ('To Drown In You') 64bit
_STATISTICS_WRITING_DATE_UTC             : 2018-05-22 19:02:35
_STATISTICS_TAGS                         : BPS DURATION NUMBER_OF_FRAMES NUMBER_OF_BYTES

Audio #1
ID                                       : 2
Format                                   : AC-3
Format/Info                              : Audio Coding 3
Mode extension                           : CM (complete main)
Format settings, Endianness              : Big
Codec ID                                 : A_AC3
Duration                                 : 1h 55mn
Bit rate mode                            : Constant
Bit rate                                 : 384 Kbps
Channel(s)                               : 6 channels
Channel positions                        : Front: L C R, Side: L R, LFE
Sampling rate                            : 48.0 KHz
Bit depth                                : 16 bits
Compression mode                         : Lossy
Stream size                              : 317 MiB (23%)
Title                                    : Surround
Language                                 : German
Default                                  : Yes
Forced                                   : No
DURATION                                 : 01:55:20.832000000
NUMBER_OF_FRAMES                         : 216276
NUMBER_OF_BYTES                          : 332199936
_STATISTICS_WRITING_APP                  : mkvmerge v10.0.0 ('To Drown In You') 64bit
_STATISTICS_WRITING_DATE_UTC             : 2018-05-22 19:02:35
_STATISTICS_TAGS                         : BPS DURATION NUMBER_OF_FRAMES NUMBER_OF_BYTES

Audio #2
ID                                       : 3
Format                                   : AC-3
Format/Info                              : Audio Coding 3
Mode extension                           : CM (complete main)
Format settings, Endianness              : Big
Codec ID                                 : A_AC3
Duration                                 : 1h 55mn
Bit rate mode                            : Constant
Bit rate                                 : 384 Kbps
Channel(s)                               : 6 channels
Channel positions                        : Front: L C R, Side: L R, LFE
Sampling rate                            : 48.0 KHz
Bit depth                                : 16 bits
Compression mode                         : Lossy
Stream size                              : 317 MiB (23%)
Title                                    : Surround
Language                                 : English
Default                                  : No
Forced                                   : No
DURATION                                 : 01:55:20.832000000
NUMBER_OF_FRAMES                         : 216276
NUMBER_OF_BYTES                          : 332199936
_STATISTICS_WRITING_APP                  : mkvmerge v10.0.0 ('To Drown In You') 64bit
_STATISTICS_WRITING_DATE_UTC             : 2018-05-22 19:02:35
_STATISTICS_TAGS                         : BPS DURATION NUMBER_OF_FRAMES NUMBER_OF_BYTES

Text #1
ID                                       : 4
Format                                   : ASS
Codec ID                                 : S_TEXT/ASS
Codec ID/Info                            : Advanced Sub Station Alpha
Compression mode                         : Lossless
Title                                    : German Forced
Language                                 : German
Default                                  : Yes
Forced                                   : Yes
DURATION                                 : 01:48:57.790000000
NUMBER_OF_FRAMES                         : 5
NUMBER_OF_BYTES                          : 268
_STATISTICS_WRITING_APP                  : mkvmerge v10.0.0 ('To Drown In You') 64bit
_STATISTICS_WRITING_DATE_UTC             : 2018-05-22 19:02:35
_STATISTICS_TAGS                         : BPS DURATION NUMBER_OF_FRAMES NUMBER_OF_BYTES

Text #2
ID                                       : 5
Format                                   : VobSub
Muxing mode                              : zlib
Codec ID                                 : S_VOBSUB
Codec ID/Info                            : The same subtitle format used on DVDs
Title                                    : German
Language                                 : German
Default                                  : No
Forced                                   : No

Text #3
ID                                       : 6
Format                                   : VobSub
Muxing mode                              : zlib
Codec ID                                 : S_VOBSUB
Codec ID/Info                            : The same subtitle format used on DVDs
Title                                    : Englisch
Language                                 : English
Default                                  : No
Forced                                   : No



Download:
Share Online Share OnlineShare OnlineShare Online
 

Kommentare