DNS SERVER AENDERNum der staatlichen Zensur zu umgehen. Sollten wir von eurem Provider geseprrt werden, nutzt den TOR BROWSER oder ändert euren DNS SERVER.

Filmwünsche können bei uns im Forum abgegeben werden

Wir Speichern Nicht




 
 
 
Top Releases
Im.Zweifel.gluecklich.2017.G...
Im.Zweifel.gluecklich.2017.G...
Thelma.2017.GERMAN.720p.BluR...
Thelma.2017.GERMAN.1080p.Blu...
Thelma.2017.GERMAN.DUAL.COMP...
The.Death.of.Stalin.2017.Ger...
Revenge.2017.German.AC3.DL.1...
Avengers.Infinity.War.2018.G...
Avengers.Infinity.War.2018.G...
Avengers.Infinity.War.2018.G...

Cinedubs
Breaking.In.2018.UNRATED.GER...
Breaking.In.2018.UNRATED.GER...
Breaking.In.2018.UNRATED.GER...
Deadpool.2.2018.Super.Duper....
Deadpool.2.2018.Super.Duper....
Die.Farbe.des.Horizonts.2018...
Die.Farbe.des.Horizonts.2018...
Catch.Me.2018.GERMAN.DL.AC3....
Catch.Me.2018.GERMAN.DL.AC3....
Deadpool.2.Super.Duper.Cut.2...

Neuerscheinungen 2017-18
A.Thought.of.Ecstasy.2017.MU...
Criminal.Squad.THEATRICAL.20...
Criminal.Squad.THEATRICAL.20...
Criminal.Squad.THEATRICAL.20...
Criminal.Squad.THEATRICAL.20...
Action.Point.2018.German.AC3...
A.Thought.of.Ecstasy.2017.Ge...
A.Thought.of.Ecstasy.2017.Ge...
The.Package.2018.GERMAN.720p...
Norma.Rae.1979.MULTi.COMPLET...

XXX
WildOnCam.18.08.14.Vienna.Ro...
Yanks.18.08.04.Daliah.Amor.B...
BitchConfessions.18.08.13.Ba...
21FootArt.18.08.14.Shona.Riv...
WildOnCam.18.08.13.Luna.Star...
ZeroTolerance.Bring.Back.Bus...
WildOnCam.18.08.03.Lilly.Hal...
BlackPayBack.E03.Violet.Monr...
X-Art.18.08.03.Niki.Young.18...
WowGirls.18.08.13.Anina.Silk...
XXXShades.18.08.05.Lee.Anne....
ATKGirlfriends.18.08.13.Tara...
BlackPayBack.E08.Lauren.Phil...
BlackPayBack.E06.Summer.Day....
WickedPictures.Deep.Anal.Dri...
X-Art.18.08.08.Zazie.Hot.Off...
BlackPayBack.E05.Maddy.Oreil...
WhenGirlsPlay.18.08.14.Elena...
WhiteGhetto.18.08.14.Gia.Ste...
WildOnCam.18.08.10.Isabelle....

3D
Rampage.Big.Meets.Bigger.3D....
Rampage.Big.Meets.Bigger.3D....
Rampage.Big.Meets.Bigger.3D....
Winter.Games.3D.2013.DUAL.CO...
Tomb.Raider.3D.2018.German.7...
Rampage.Big.Meets.Bigger.3D....
Rampage.Big.Meets.Bigger.3D....
Tomb.Raider.3D.2018.MULTi.CO...
Pacific.Rim.Uprising.3D.2018...
Ready.Player.One.3D.2018.Ger...
Rampage.-.Big.Meets.Bigger.2...
Ready.Player.One.2018.3D.HOU...
Ready.Player.One.2018.3D.HSB...
Ready.Player.One.3D.2018.MUL...
Black.Panther.3D.2018.MULTI....

Old_Stuff
Meine.liebe.Rabenmutter.germ...
Da.Vincis.Demons.S01.Complet...
Eragon.Das.Vermaechtnis.der....
Adele.und.das.Geheimnis.des....
Die.fabelhafte.Welt.der.Amel...
Haus.des.Geldes.S01.German.M...
How.I.Met.Your.Mother.S01.Ge...
The.Dark.Knight.Rises.2012.M...
Weissensee.S03.2015.GERMAN.C...
Weissensee.S01+S02.2010.GERM...
Die.Unglaublichen.-.The.Incr...
Der.grosse.Trick.1978.German...
Sully.2016.MULTi.COMPLETE.BL...
Tremors.3.Die.neue.Brut.2001...
Die.Indianer.von.Cleveland.2...

Filme
Rampage.Big.Meets.Bigger.201...
Rescue.Dawn.2006.German.AC3....
The.Lodger.-.Der.Untermieter...
Die.zwei.Gesichter.des.Janua...
Hanni.und.Nanni.4.Mehr.als.b...
Mein.Freund.der.Wasserdrache...
24.Stunden.in.seiner.Gewalt....
Protocol.1984.German.AC3D.DL...
Final.Destination.4.2009.Ger...
Last.Vegas.2013.German.AC3.D...
Verdammt.Die.Zombies.Kommen....
Verdammt.Die.Zombies.Kommen....
Need.for.Speed.2014.German.A...
20.Feet.from.Stardom.2013.DO...
A.Thought.of.Ecstasy.2017.Ge...
Push.2009.German.DL.1080p.Bl...
Perfect.Sense.German.DL.1080...
Der.Teufel.ist.eine.Frau.193...
Mothers.Day.Mutter.ist.wiede...
A.Quiet.Place.2018.German.DL...
Prinz.Eisenherz.1954.German....
Phantom.Kommando.1985.German...
Sein.Freund.Jello.1957.Germa...
Sein.Freund.Jello.1957.Germa...

 
 
Mr.Church.2016.German.DL.AC3D.1080p.BluRay.x265-FuN
Jahr: 2016
Genre: Tragikomödie
Sprache: Deutsch AC3 | Englisch AC3
Laufzeit: 1h 45mn
Bitrate: 3 283 Kbps
Format: MKV
Größe: 2.42 GiB
Release:

Beschreibung:

1965, die zehnjährige Charlotte ‚Charlie‘ Brody lebt mit ihrer alleinerziehenden Mutter Marie Brody (Natascha McElhone) in einem kleinen heruntergekommenen Apartment. Eines Morgens steht Henry Church (Eddie Murphy) vor der Tür. Er hat von Maries verstorbenem Ex-Freund den Auftrag bekommen, sich sechs Monate lang um Charlie und Marie zu kümmern. Doch aus den sechs Monaten werden sechs Jahre, immer noch unterstützt Mr. Church seine Schutzbefohlenen. Als Charlie (Britt Robertson) Jahre später einen Studienplatz an der Universität bekommt, werden sie und Mr. Church erstmals getrennt. Doch mittlerweile ist Mr. Church eine wichtige Person für Charlie geworden, ohne dessen Hilfe sie es im Leben sehr schwer hat.




Format                                   : Matroska
Format version                           : Version 4 / Version 2
File size                                : 2.42 GiB
Duration                                 : 1h 45mn
Overall bit rate                         : 3 283 Kbps
Encoded date                             : UTC 2018-05-19 17:13:56
Writing application                      : mkvmerge v22.0.0 ('At The End Of The World') 64-bit
Writing library                          : libebml v1.3.5 + libmatroska v1.4.8
DURATION                                 : 01:45:21.664000000
NUMBER_OF_FRAMES                         : 197552
NUMBER_OF_BYTES                          : 303439872
_STATISTICS_WRITING_APP                  : mkvmerge v22.0.0 ('At The End Of The World') 64-bit
_STATISTICS_WRITING_DATE_UTC             : 2018-05-19 17:13:56
_STATISTICS_TAGS                         : BPS DURATION NUMBER_OF_FRAMES NUMBER_OF_BYTES

Video
ID                                       : 1
Format                                   : HEVC
Format/Info                              : High Efficiency Video Coding
Format profile                           : Main@L4.0
Codec ID                                 : V_MPEGH/ISO/HEVC
Duration                                 : 1h 45mn
Bit rate                                 : 2 450 Kbps
Width                                    : 1 920 pixels
Height                                   : 1 036 pixels
Display aspect ratio                     : 1.85:1
Frame rate mode                          : Constant
Frame rate                               : 23.976 fps
Color space                              : YUV
Chroma subsampling                       : 4:2:0
Bit depth                                : 8 bits
Bits/(Pixel*Frame)                       : 0.051
Stream size                              : 1.80 GiB (75%)
Writing library                          : x265 2.6:[Linux][GCC 5.4.0][64 bit] 8bit+10bit+12bit
Encoding settings                        : cpuid=1056767 / frame-threads=2 / wpp / no-pmode / no-pme / no-psnr / no-ssim / log-level=2 / input-csp=1 / input-res=1920x1036 / interlace=0 / total-frames=0 / level-idc=0 / high-tier=1 / uhd-bd=0 / ref=3 / no-allow-non-conformance / no-repeat-headers / annexb / no-aud / no-hrd / info / hash=0 / no-temporal-layers / open-gop / min-keyint=24 / keyint=240 / bframes=4 / b-adapt=2 / b-pyramid / bframe-bias=0 / rc-lookahead=20 / lookahead-slices=6 / scenecut=40 / no-intra-refresh / ctu=64 / min-cu-size=8 / no-rect / no-amp / max-tu-size=32 / tu-inter-depth=1 / tu-intra-depth=1 / limit-tu=0 / rdoq-level=0 / dynamic-rd=0,00 / no-ssim-rd / signhide / no-tskip / nr-intra=0 / nr-inter=0 / no-constrained-intra / no-strong-intra-smoothing / max-merge=2 / limit-refs=3 / no-limit-modes / me=1 / subme=2 / merange=57 / temporal-mvp / weightp / no-weightb / no-analyze-src-pics / deblock=0:0 / no-sao / no-sao-non-deblock / rd=3 / no-early-skip / rskip / no-fast-intra / no-tskip-fast / no-cu-lossless / no-b-intra / no-splitrd-skip / rdpenalty=0 / psy-rd=2,00 / psy-rdoq=0,00 / no-rd-refine / analysis-reuse-mode=0 / no-lossless / cbqpoffs=0 / crqpoffs=0 / rc=crf / crf=23,0 / qcomp=0,60 / qpstep=4 / stats-write=0 / stats-read=0 / ipratio=1,40 / pbratio=1,30 / aq-mode=1 / aq-strength=1,00 / cutree / zone-count=0 / no-strict-cbr / qg-size=32 / no-rc-grain / qpmax=69 / qpmin=0 / no-const-vbv / sar=1 / overscan=0 / videoformat=5 / range=0 / colorprim=1 / transfer=1 / colormatrix=1 / chromaloc=0 / display-window=0 / max-cll=0,0 / min-luma=0 / max-luma=255 / log2-max-poc-lsb=8 / vui-timing-info / vui-hrd-info / slices=1 / no-opt-qp-pps / no-opt-ref-list-length-pps / no-multi-pass-opt-rps / scenecut-bias=0,05 / no-opt-cu-delta-qp / no-aq-motion / no-hdr / no-hdr-opt / no-dhdr10-opt / analysis-reuse-level=5 / scale-factor=0 / refine-intra=0 / refine-inter=0 / refine-mv=0 / no-limit-sao / ctu-info=0 / no-lowpass-dct / refine-mv-type=0 / copy-pic=1
Default                                  : Yes
Forced                                   : No
DURATION                                 : 01:45:21.566000000
NUMBER_OF_FRAMES                         : 151566
NUMBER_OF_BYTES                          : 1926644278
_STATISTICS_WRITING_APP                  : mkvmerge v22.0.0 ('At The End Of The World') 64-bit
_STATISTICS_WRITING_DATE_UTC             : 2018-05-19 17:13:56
_STATISTICS_TAGS                         : BPS DURATION NUMBER_OF_FRAMES NUMBER_OF_BYTES

Audio #1
ID                                       : 2
Format                                   : AC-3
Format/Info                              : Audio Coding 3
Mode extension                           : CM (complete main)
Format settings, Endianness              : Big
Codec ID                                 : A_AC3
Duration                                 : 1h 45mn
Bit rate mode                            : Constant
Bit rate                                 : 384 Kbps
Channel(s)                               : 6 channels
Channel positions                        : Front: L C R, Side: L R, LFE
Sampling rate                            : 48.0 KHz
Bit depth                                : 16 bits
Compression mode                         : Lossy
Delay relative to video                  : -5ms
Stream size                              : 289 MiB (12%)
Title                                    : Surround
Language                                 : German
Default                                  : Yes
Forced                                   : Yes
DURATION                                 : 01:45:21.600000000
NUMBER_OF_FRAMES                         : 197550
NUMBER_OF_BYTES                          : 303436800
_STATISTICS_WRITING_APP                  : mkvmerge v22.0.0 ('At The End Of The World') 64-bit
_STATISTICS_WRITING_DATE_UTC             : 2018-05-19 17:13:56
_STATISTICS_TAGS                         : BPS DURATION NUMBER_OF_FRAMES NUMBER_OF_BYTES

Audio #2
ID                                       : 3
Format                                   : AC-3
Format/Info                              : Audio Coding 3
Mode extension                           : CM (complete main)
Format settings, Endianness              : Big
Codec ID                                 : A_AC3
Duration                                 : 1h 45mn
Bit rate mode                            : Constant
Bit rate                                 : 384 Kbps
Channel(s)                               : 6 channels
Channel positions                        : Front: L C R, Side: L R, LFE
Sampling rate                            : 48.0 KHz
Bit depth                                : 16 bits
Compression mode                         : Lossy
Stream size                              : 289 MiB (12%)
Title                                    : Surround
Language                                 : English
Default                                  : No
Forced                                   : No
DURATION                                 : 01:36:53.850000000
NUMBER_OF_FRAMES                         : 2936
NUMBER_OF_BYTES                          : 27681919
_STATISTICS_WRITING_APP                  : mkvmerge v22.0.0 ('At The End Of The World') 64-bit
_STATISTICS_WRITING_DATE_UTC             : 2018-05-19 17:13:56
_STATISTICS_TAGS                         : BPS DURATION NUMBER_OF_FRAMES NUMBER_OF_BYTES

Text #1
ID                                       : 4
Format                                   : PGS
Codec ID                                 : S_HDMV/PGS
Codec ID/Info                            : The same subtitle format used on BDs/HD-DVDs
Title                                    : full
Language                                 : English
Default                                  : No
Forced                                   : No
DURATION                                 : 01:39:38.681000000
NUMBER_OF_FRAMES                         : 3422
NUMBER_OF_BYTES                          : 31671083
_STATISTICS_WRITING_APP                  : mkvmerge v22.0.0 ('At The End Of The World') 64-bit
_STATISTICS_WRITING_DATE_UTC             : 2018-05-19 17:13:56
_STATISTICS_TAGS                         : BPS DURATION NUMBER_OF_FRAMES NUMBER_OF_BYTES

Text #2
ID                                       : 5
Format                                   : PGS
Codec ID                                 : S_HDMV/PGS
Codec ID/Info                            : The same subtitle format used on BDs/HD-DVDs
Title                                    : full hearing impaired
Language                                 : English
Default                                  : No
Forced                                   : No



Download:
Share Online Share OnlineShare OnlineShare Online
 

Kommentare