DNS SERVER AENDERNum der staatlichen Zensur zu umgehen. Sollten wir von eurem Provider geseprrt werden, nutzt den TOR BROWSER oder ändert euren DNS SERVER.

Filmwünsche können bei uns im Forum abgegeben werden

Wir Speichern Nicht




 
 
 
Top Releases
Midnight.Sun.Alles.fuer.dich...
Familiye.2017.German.AC3.108...
Gringo.2018.German.DL.1080p....
Deadpool.2.Super.Duper.Cut.2...
Deadpool.2.Super.Duper.Cut....
Deadpool.2.Super.Duper.Cut.2...
Thelma.2017.German.AC3.DL.10...
Familiye.2017.German.1080p.B...
Familiye.2017.German.720p.Bl...
Midnight.Sun.Alles.fuer.dich...

Cinedubs
Breaking.In.2018.UNRATED.GER...
Breaking.In.2018.UNRATED.GER...
Breaking.In.2018.UNRATED.GER...
Die.Farbe.des.Horizonts.2018...
Die.Farbe.des.Horizonts.2018...
Catch.Me.2018.GERMAN.DL.AC3....
Catch.Me.2018.GERMAN.DL.AC3....
Skyscraper.2018.German.AC3LD...
Skyscraper.2018.GERMAN.DL.AC...
Der.Dolmetscher.German.AC3.7...

Neuerscheinungen 2017-18
Wilson.Der.Weltverbesserer.2...
Wilson.Der.Weltverbesserer.2...
Das.Zeitraetsel.2018.German....
Das.Zeitraetsel.2018.German....
Familiye.2017.GERMAN.COMPLET...
Lazer.Team.2015.DC.German.DL...
Lazer.Team.2015.DC.German.72...
Badlands.1973.MULTi.COMPLETE...
A.Thought.of.Ecstasy.2017.MU...
Criminal.Squad.THEATRICAL.20...

XXX
FuckingOffice.18.08.13.Naomi...
DateSlam.18.08.13.Miyuki.Asi...
EvilAngel.Anal.Players.5.XXX...
EvilAngel.18.07.05.Maddy.Ore...
GirlsOutWest.18.08.14.Kristi...
GirlsOutWest.18.08.13.Rose.B...
EvilAngel.18.08.13.Victoria....
Cosmid.18.08.13.Teresa.Kurta...
EuroGirlsOnGirls.18.08.13.In...
FemJoy.18.08.14.Cosmo.Summer...
FTVMilfs.18.08.14.Krissy.Lyn...
FitnessRooms.18.08.13.Mia.Na...
DaughterSwap.18.07.14.Skylar...
DevilsFilm.18.08.13.Aaliyah....
FutileStruggles.Backyard.Bon...
FakeDrivingSchool.18.08.13.G...
DigitalPlayground.18.08.13.C...
DevilsFilm.18.08.14.Sloan.Ha...
FutileStruggles.Clear.Strap....
GirlsOutWest.18.08.12.Jessie...

3D
Avengers.Infinity.War.3D.201...
Rampage.Big.Meets.Bigger.3D....
Rampage.Big.Meets.Bigger.3D....
Rampage.Big.Meets.Bigger.3D....
Winter.Games.3D.2013.DUAL.CO...
Tomb.Raider.3D.2018.German.7...
Rampage.Big.Meets.Bigger.3D....
Rampage.Big.Meets.Bigger.3D....
Tomb.Raider.3D.2018.MULTi.CO...
Pacific.Rim.Uprising.3D.2018...
Ready.Player.One.3D.2018.Ger...
Rampage.-.Big.Meets.Bigger.2...
Ready.Player.One.2018.3D.HOU...
Ready.Player.One.2018.3D.HSB...
Ready.Player.One.3D.2018.MUL...

Old_Stuff
Meine.liebe.Rabenmutter.germ...
Da.Vincis.Demons.S01.Complet...
Eragon.Das.Vermaechtnis.der....
Adele.und.das.Geheimnis.des....
Die.fabelhafte.Welt.der.Amel...
Haus.des.Geldes.S01.German.M...
How.I.Met.Your.Mother.S01.Ge...
The.Dark.Knight.Rises.2012.M...
Weissensee.S03.2015.GERMAN.C...
Weissensee.S01+S02.2010.GERM...
Die.Unglaublichen.-.The.Incr...
Der.grosse.Trick.1978.German...
Sully.2016.MULTi.COMPLETE.BL...
Tremors.3.Die.neue.Brut.2001...
Die.Indianer.von.Cleveland.2...

Filme
Deadpool.2.2018.The.Super.Du...
Mr.Destiny.1990.German.DL.AC...
Mr.Destiny.1990.German.DL.AC...
Wahrheit.oder.Pflicht.Truth....
Steppenwolf.1974.German.DL.1...
Thelma.2017.German.DL.DTS.72...
Thelma.2017.German.DL.DTS.10...
Familiye.2017.German.AC3.108...
Familiye.2017.German.AC3.720...
Gringo.2018.German.DTS.DL.72...
Gringo.2018.German.DTS.DL.10...
Veronika.beschliesst.zu.ster...
Dead.Presidents.UNRATED.1995...
Die.gute.Erde.1937.German.AC...
Steppenwolf.1974.OAR.German....
Death.Watch.Der.gekaufte.Tod...
Communion.-.Messe.des.Grauen...
Monte.Carlo.Rallye.1969.Germ...
Ring.2.Unrated.2005.German.A...
Spot.-.Ein.Hund.auf.Abwegen....
Spot.-.See.Spot.Run.2001.Ger...
All.is.Lost.Ueberleben.ist.a...
Die.durch.die.Hoelle.gehen.1...
The.Flash.2014.S04.GERMAN.72...

 
 
Bevor.der.Winter.kommt.2013.German.1080p.BluRay.x264-CONTRiBUTiON
Jahr: 2013
Genre: Drama
Sprache: Deutsch DTS
Laufzeit: 1h 42mn
Bitrate: 4 642 Kbps
Format: MKV
Größe: 3.33 GiB
Release:

Beschreibung:

Der renommierte Neurochirurg Paul arbeitet bis zur Erschöpfung, genießt das routinierte Glück einer langjährigen Ehe. Mit seinem eingefahrenen Alltag ist Schluss, als ihm plötzlich anonym rote Rosensträuße ins Privatdomizil, Klinik und Praxis geschickt werden und eine hübsche Zwanzigjährige immer öfter scheinbar zufällig seinen Weg kreuzt und ihn aus der emotionalen Reserve lockt. Er beginnt über seine 30jährige Beziehung nachzudenken, über Beruf und Karriere, stellt sein bisheriges Leben in Frage. Am Ende überstürzen sich die Ereignisse.



Format                                   : Matroska
Format version                           : Version 2
File size                                : 3.33 GiB
Duration                                 : 1h 42mn
Overall bit rate                         : 4 642 Kbps
Writing application                      : mkvmerge v6.6.0 ('The Edge Of The In Between') built on Dec 1 2013 17:55:00
Writing library                          : libebml v1.3.0 + libmatroska v1.4.1

Video
ID                                       : 1
Format                                   : AVC
Format/Info                              : Advanced Video Codec
Format profile                           : High@L4.1
Format settings, CABAC                   : Yes
Format settings, ReFrames                : 5 frames
Codec ID                                 : V_MPEG4/ISO/AVC
Duration                                 : 1h 42mn
Bit rate                                 : 3 041 Kbps
Width                                    : 1 920 pixels
Height                                   : 808 pixels
Display aspect ratio                     : 2.40:1
Frame rate mode                          : Constant
Frame rate                               : 24.000 fps
Color space                              : YUV
Chroma subsampling                       : 4:2:0
Bit depth                                : 8 bits
Scan type                                : Progressive
Bits/(Pixel*Frame)                       : 0.082
Stream size                              : 2.18 GiB (66%)
Writing library                          : x264 core 146 r2538 121396c
Encoding settings                        : cabac=1 / ref=5 / deblock=1:-3:-3 / analyse=0x3:0x133 / me=umh / subme=8 / psy=1 / psy_rd=1.00:0.15 / mixed_ref=1 / me_range=16 / chroma_me=1 / trellis=1 / 8x8dct=1 / cqm=0 / deadzone=21,11 / fast_pskip=0 / chroma_qp_offset=-3 / threads=12 / lookahead_threads=2 / sliced_threads=0 / nr=0 / decimate=1 / interlaced=0 / bluray_compat=0 / constrained_intra=0 / bframes=3 / b_pyramid=2 / b_adapt=2 / b_bias=0 / direct=3 / weightb=1 / open_gop=0 / weightp=2 / keyint=240 / keyint_min=24 / scenecut=40 / intra_refresh=0 / rc_lookahead=50 / rc=crf / mbtree=1 / crf=20.0 / qcomp=0.60 / qpmin=0 / qpmax=69 / qpstep=4 / ip_ratio=1.40 / aq=1:1.00
Language                                 : English
Default                                  : Yes
Forced                                   : No

Audio
ID                                       : 2
Format                                   : DTS
Format/Info                              : Digital Theater Systems
Mode                                     : 16
Format settings, Endianness              : Big
Codec ID                                 : A_DTS
Duration                                 : 1h 42mn
Bit rate mode                            : Constant
Bit rate                                 : 1 509 Kbps
Channel(s)                               : 6 channels
Channel positions                        : Front: L C R, Side: L R, LFE
Sampling rate                            : 48.0 KHz
Bit depth                                : 24 bits
Compression mode                         : Lossy
Stream size                              : 1.08 GiB (33%)
Language                                 : German
Default                                  : Yes
Forced                                   : No

Text
ID                                       : 3
Format                                   : UTF-8
Codec ID                                 : S_TEXT/UTF8
Codec ID/Info                            : UTF-8 Plain Text
Title                                    : Forced
Language                                 : German
Default                                  : Yes
Forced                                   : No


Download:
Share Online Share OnlineShare OnlineShare Online
 

Kommentare