DNS SERVER AENDERNum der staatlichen Zensur zu umgehen. Sollten wir von eurem Provider geseprrt werden, nutzt den TOR BROWSER oder ändert euren DNS SERVER.

Filmwünsche können bei uns im Forum abgegeben werden

Wir Speichern Nicht




 
 
 
Top Releases
Lady.Bird.2017.MULTI.COMPLET...
Set.It.Up.2018.German.Dubbed...
Set.It.Up.2018.German.Dubbed...
Shape.of.Water.Das.Fluestern...
Der.andere.Liebhaber.2017.Ge...
It.Comes.at.Night.2017.Germa...
Marshall.2017.German.DL.AC3D...
Lady.Bird.2017.German.1080p....
Lady.Bird.2017.German.DTS.DL...
Lady.Bird.2017.German.DTS.DL...

Cinedubs
Tomb.Raider.2018.3D.HSBS.Ger...
Tomb.Raider.2018.3D.HOU.Germ...
Pacific.Rim.2.Uprising.3D.HO...
Pacific.Rim.2.Uprising.3D.HS...
Pacific.Rim.2.Uprising.Germa...
Pacific.Rim.2.Uprising.Germa...
Pacific.Rim.2.Uprising.Germa...
Unsane.Ausgeliefert.German.D...
Unsane.Ausgeliefert.German.D...
Sherlock.Gnomes.2018.German....

Neuerscheinungen 2017-18
Yellowstone.Nationalpark.201...
The.Patriot.2000.COMPLETE.UH...
Cherry.2000.1987.COMPLETE.BL...
Saturn.3.1980.MULTi.COMPLETE...
True.Confessions.1981.MULTi....
Die.Geier.warten.schon.Showd...
Sturmfahrt.nach.Alaska.The.W...
Juggernaut.1974.MULTi.COMPLE...
Das.Verfahren.ist.eingestell...
Bullet.Head.2017.German.DTS....

XXX
NewSensations.18.05.30.Cheri...
MofosBSides.18.05.27.Gia.Lov...
TrenchCoatX.17.10.19.Lily.La...
Masturbating.Glamour.Dolls.2...
MeloneChallenge.18.05.26.Wen...
TrenchCoatX.17.09.12.Ella.No...
MetArtX.18.05.29.Riley.Anne....
MassageRooms.18.05.30.Darcia...
MatureNL.18.05.24.Bella.S.XX...
LezCuties.18.05.31.Cherry.Ki...
Oldtimers.Still.Hot.And.Wet....
MeloneChallenge.18.05.29.Wen...
Oldtimers.Still.Hot.And.Wet....
Lustery.E114.Sasha.And.Lesha...
MetArtX.18.05.27.Alexis.Crys...
TrenchCoatX.17.10.08.April.O...
Oldtimers.Still.Hot.And.Wet....
TrenchCoatX.17.09.22.Veronic...
MomKnowsBest.18.05.30.Bridge...
MatureNL.18.05.23.Summer.XXX...

3D
Zombies.Ueberlebe.die.Untote...
Der.Dschungel.Der.Zauber.ein...
Penthouse.Presents.Sexy.Sing...
The.LEGO.Ninjago.Movie.3D.20...
Zombies.Ueberlebe.die.Untote...
Norwegen.3D.2013.GERMAN.DL.D...
Norwegen.3D.2013.GERMAN.DOKU...
Jumanji.Willkommen.im.Dschun...
Jumanji.Welcome.To.The.Jungl...
Abraham.Lincoln.Vampire.Hunt...
Norwegen.3D.2013.MULTi.COMPL...
Star.Wars.Episode.VIII.Die.l...
Star.Wars.Episode.VIII.Die.l...
Star.Wars.Episode.VIII.Die.l...
Jumanji.Welcome.To.The.Jungl...

Old_Stuff
Weissensee.S03.2015.GERMAN.C...
Weissensee.S01+S02.2010.GERM...
Die.Unglaublichen.-.The.Incr...
Der.grosse.Trick.1978.German...
Sully.2016.MULTi.COMPLETE.BL...
Tremors.3.Die.neue.Brut.2001...
Die.Indianer.von.Cleveland.2...
Dealt.2017.1080p.AMZN.WEB-DL...
Dealt.2017.720p.AMZN.WEB-DL....
Roter.Staub.aka.The.Brave.On...
Roter.Staub.aka.The.Brave.On...
Magic.in.the.Moonlight.2014....
The.LEGO.Ninjago.Movie.2017....
Zeit.der.Zaertlichkeit.1983....
Zeit.der.Zaertlichkeit.1983....

Filme
Suicide.Squad.2016.EXTENDED....
Der.Patriot.2000.German.DL.2...
MotoGP.Moto2.Moto3.Saison.20...
MotoGP.Moto2.Moto3.Saison.20...
South.Central.-.In.den.Stras...
Critical.Condition.1987.Germ...
Wut.im.Bauch.aka.Over.the.Ed...
Toedliches.Vertrauen.2001.Ge...
Duesenjaeger.1957.German.DL....
Abrechnung.in.Shanghai.1941....
The.Frankenstein.Chronicles....
Stuermische.Ernte.2016.GERMA...
Alarm.fuer.Cobra.11.S41D01.G...
Der.Typ.mit.dem.irren.Blick....
Der.Buschpilot.-.LAfricain.U...
Dirty.Grandpa.2016.German.Du...
Dirty.Grandpa.2016.German.Du...
Wings.Of.Freedom.Auf.Adlers....
Die.Schreckenskammer.des.Dr....
Die.Schreckenskammer.des.Dr....
A.Chorus.Line.1985.German.AC...
Wolf.Creek.S01.COMPLETE.Germ...
Wolf.Creek.S01.COMPLETE.Germ...
The.Flash.2014.S04.GERMAN.72...

 
 
Zeit.fuer.Legenden.2016.German.DTS.DL.1080p.BluRay.x264-XANOR
Jahr: 2016
Genre: Drama, Sport
Sprache: Deutsch DTS | Englisch DTS
Laufzeit: 1h 57mn
Bitrate: 7 563 Kbps
Format: MKV
Größe: 6.20 GiB
Release:

Beschreibung:

Ohio, 1934. Der schwarze Ausnahme-Athlet Jesse Owens trainiert unter seinem Coach Larry Snyder, der ihn auf die Olympischen Spiele in Berlin vorbereiten will. Sportlich läuft es perfekt für Jesse, der immer wieder Bestzeiten läuft – aber der Trubel um seine Person macht ihm zu schaffen. Zwei Jahre später hat er mit Snyders Hilfe rechtzeitig für Olympia zu innerer Stärke gefunden. Als Jesse jedoch erfährt, dass die Nazis die Olympischen Spiele für Ihre rassistische Propaganda nutzen wollen, erwägt er, sie zu boykottieren. Doch letztlich trifft er die einzig richtige Entscheidung: Er reist nach Berlin – und macht die Spiele nicht nur zu seinem persönlichen sportlichen Triumph, sondern sorgt für eine herbe Niederlage für Hitlers Nazi-Regime…



Complete name                            : xan-zflegenden.1080p.mkv
Format                                   : Matroska
Format version                           : Version 2
File size                                : 6.20 GiB
Duration                                 : 1h 57mn
Overall bit rate                         : 7 563 Kbps
Writing application                      : mkvmerge v4.1.1 ('Bouncin' Back') built on Jul  3 2010 22:54:08
Writing library                          : libebml v1.0.0 + libmatroska v1.0

Video
ID                                       : 1
Format                                   : AVC
Format/Info                              : Advanced Video Codec
Format profile                           : High@L4.1
Format settings, CABAC                   : Yes
Format settings, ReFrames                : 5 frames
Codec ID                                 : V_MPEG4/ISO/AVC
Duration                                 : 1h 57mn
Bit rate                                 : 4 394 Kbps
Width                                    : 1 920 pixels
Height                                   : 808 pixels
Display aspect ratio                     : 2.40:1
Frame rate mode                          : Constant
Frame rate                               : 24.000 fps
Color space                              : YUV
Chroma subsampling                       : 4:2:0
Bit depth                                : 8 bits
Scan type                                : Progressive
Bits/(Pixel*Frame)                       : 0.118
Stream size                              : 3.60 GiB (58%)
Writing library                          : x264 core 148 r2744 b97ae06
Encoding settings                        : cabac=1 / ref=5 / deblock=1:-1:-1 / analyse=0x3:0x133 / me=hex / subme=7 / psy=1 / psy_rd=1.00:0.15 / mixed_ref=1 / me_range=16 / chroma_me=1 / trellis=2 / 8x8dct=1 / cqm=0 / deadzone=21,11 / fast_pskip=0 / chroma_qp_offset=-3 / threads=18 / lookahead_threads=3 / sliced_threads=0 / nr=0 / decimate=1 / interlaced=0 / bluray_compat=0 / constrained_intra=0 / bframes=3 / b_pyramid=2 / b_adapt=1 / b_bias=0 / direct=3 / weightb=1 / open_gop=0 / weightp=2 / keyint=240 / keyint_min=24 / scenecut=40 / intra_refresh=0 / rc_lookahead=50 / rc=crf / mbtree=1 / crf=20.0 / qcomp=0.60 / qpmin=10 / qpmax=51 / qpstep=4 / ip_ratio=1.40 / aq=1:1.00
Language                                 : English
Default                                  : Yes
Forced                                   : No

Audio #1
ID                                       : 2
Format                                   : DTS
Format/Info                              : Digital Theater Systems
Mode                                     : 16
Format settings, Endianness              : Big
Codec ID                                 : A_DTS
Duration                                 : 1h 57mn
Bit rate mode                            : Constant
Bit rate                                 : 1 509 Kbps
Channel(s)                               : 6 channels
Channel positions                        : Front: L C R, Side: L R, LFE
Sampling rate                            : 48.0 KHz
Bit depth                                : 24 bits
Compression mode                         : Lossy
Stream size                              : 1.24 GiB (20%)
Language                                 : German
Default                                  : Yes
Forced                                   : No

Audio #2
ID                                       : 3
Format                                   : DTS
Format/Info                              : Digital Theater Systems
Mode                                     : 16
Format settings, Endianness              : Big
Codec ID                                 : A_DTS
Duration                                 : 1h 57mn
Bit rate mode                            : Constant
Bit rate                                 : 1 509 Kbps
Channel(s)                               : 6 channels
Channel positions                        : Front: L C R, Side: L R, LFE
Sampling rate                            : 48.0 KHz
Bit depth                                : 24 bits
Compression mode                         : Lossy
Stream size                              : 1.24 GiB (20%)
Language                                 : English
Default                                  : No
Forced                                   : No

Text
ID                                       : 4
Format                                   : UTF-8
Codec ID                                 : S_TEXT/UTF8
Codec ID/Info                            : UTF-8 Plain Text
Language                                 : German
Default                                  : Yes
Forced                                   : Yes


Download:
Share Online Share OnlineShare OnlineShare Online
 

Kommentare