Filecrypt zeigt vereinzelt Files als "n/a". Die Downloads sind trotzdem komplett.

DNS SERVER AENDERNum der staatlichen Zensur zu umgehen. Sollten wir von eurem Provider geseprrt werden, nutzt den TOR BROWSER oder ändert euren DNS SERVER.

Filmwünsche können bei uns im Forum abgegeben werden

Wir Speichern Nicht




 
 
 
Top Releases
Jurassic.World.2015.German.A...
Transit.2018.German.AC3.1080...
Hereditary.Das.Vermaechtnis....
Batman.The.Killing.Joke.2016...
Moonlight.2016.German.DL.DTS...
Love.Simon.2018.German.DTS.D...
Love.Simon.2018.German.DTS.D...
The.Night.Comes.for.Us.2018....
Cartel.Land.2015.German.DTSH...
Assassination.2015.German.DT...

Cinedubs
Bad.Spies.2018.German.AC3MD....
Bad.Spies.2018.German.AC3MD....
MEG.Biss.bald.2018.German.AC...
Slender.Man.2018.GERMAN.DL.A...
Slender.Man.2018.GERMAN.DL.A...
MEG.Biss.bald.2018.German.AC...
MEG.Biss.bald.2018.German.AC...
Searching.2018.German.AC3MD....
Searching.2018.German.AC3MD....
211.Cops.Under.Fire.2018.Ger...

Neuerscheinungen 2017-18
Point.Break.2015.German.DL.D...
Der.Himmel.ueber.Berlin.1987...
Tales.from.the.Hood.2.2018.G...
Tales.from.the.Hood.2.2018.G...
Tau.2018.German.AC3.DL.1080p...
Ploetzlich.Santa.2016.GERMAN...
Ploetzlich.Santa.2016.GERMAN...
Ploetzlich.Santa.2016.GERMAN...
Taxi.5.2018.GERMAN.AC3.1080p...
Taxi.5.2018.GERMAN.AC3.720p....

XXX
DevilsFilm.18.10.04.Victoria...
BrothaLovers.18.09.30.Kate.E...
FTVGirls.18.10.04.Vanna.And....
EvilAngel.Anal.Slut.Diaries....
MistressT.18.04.08.Atone.For...
Nubiles.18.10.03.Jynx.Correr...
SexAndSubmission.18.10.05.Lo...
X-Art.18.09.28.Izzy.Hot.Russ...
CumPerfection.18.10.04.Sapph...
TeenFidelity.E338.Eden.Sin.M...
MistressT.17.09.08.Gloved.Cr...
MistressT.18.03.08.Kinky.Cuc...
MistressT.18.05.03.Vampire.S...
LadyVoyeurs.18.10.03.Saskia....
BangBus.18.10.03.Angelica.Cr...
Bang.ScrewTheCops.18.10.03.N...
BrattySis.18.10.05.Kiara.Col...
EvilAngel.Young.Hot.Ass.XXX....
PornMegaLoad.18.10.04.Victor...
MistressT.18.01.22.Dominatri...

3D
Detective.Dee.und.die.Legend...
Detective.Dee.und.die.Legend...
Skyscraper.3D.German.DL.AC3....
Ant-Man.and.the.Wasp.2018.3D...
Jurassic.World.Das.gefallene...
Jurassic.World.Das.gefallene...
Best.of.3D.vol.10.-.12.GERMA...
Die.Biene.Maja.2.Die.Honigsp...
Sharknado.6.The.Last.One.3D....
Solo.A.Star.Wars.Story.3D.20...
Solo.A.Star.Wars.Story.3D.20...
Die.Biene.Maja.2.Die.Honigsp...
Avengers.Infinity.War.3D.201...
Avengers.Infinity.War.3D.201...
Rampage.Big.Meets.Bigger.3D....

Old_Stuff
Species.IV.Das.Erwachen.2007...
Species.IV.Das.Erwachen.2007...
Hotel.Transsilvanien.2012.Ge...
The.Dead.2010.German.DL.1080...
The.Dead.2.India.2013.German...
Britney.Spears.Live.The.Femm...
Buffy.The.Vampire.Slayer.199...
IMAX.Ride.Around.The.World.2...
Schimanski.-.Duisburg.Ruhror...
Akte.X.S02.German.DTS.DL.108...
How.I.Met.Your.Mother.S02.Ge...
Akte.X.S01.German.DTS.DL.108...
Den.Himmel.gibts.echt.DL.108...
Vikings.S02.German.DL.1080p....
Be.Kind.Rewind.Abgedreht.200...

Filme
MotoGP.Moto2.Moto3.Saison.20...
Sieben.Leben.2008.German.AC3...
MotoGP.Moto2.Moto3.Saison.20...
Formel.1.Saison.2018.GERMAN....
Weissensee.S04.COMPLETE.Germ...
Weissensee.S04.COMPLETE.Germ...
Beastly.Schau.in.sein.wahres...
Weissensee.S01-S03.COMPLETE....
Weissensee.S01-S03.COMPLETE....
Wolfsnaechte.2018.German.DL....
Der.Himmel.ueber.Berlin.1987...
The.Purge.S01.German.DD+51.D...
The.Purge.S01.German.DD+51.D...
Snowfall.S02.COMPLETE.GERMAN...
Marvels.Daredevil.S03.COMPLE...
Marvels.Daredevil.S03.COMPLE...
Snowfall.S02.COMPLETE.German...
Michelangelo.Inferno.und.Eks...
Ein.Sommer.in.der.Provence.G...
Ein.Sommer.in.New.Jersey.200...
Ein.Tag.Blau.2008.German.DL....
Ein.Tag.in.Middleton.2013.Ge...
Ein.schoenes.Maedchen.wie.ic...
Krypton.S01.German.DD51.Dubb...

 
 
Son.of.a.Gun.2014.German.DL.1080p.BluRay.x264-FRACTAL
Jahr: 2014
Genre: Action, Drama
Sprache: Deutsch DTS | Englisch DTS
Laufzeit: 1h 48mn
Bitrate: 6 009 Kbps
Format: MKV
Größe: 4.57 GiB
Release:

Beschreibung:

Der neunzehnjährige JR hat Glück, dass er gleich am Anfang seiner sechs Monate im Knast Gangster-Schwergewicht Brendon Lynch positiv auffällt. Sonst hätte er wie sein Zellengenosse als Sexobjekt der schweren Jungs enden können. Doch Lynch stellt JR unter seinen Schutz. Dafür hat der Junge einiges für den Boss zu organisieren, wenn er wieder draußen ist. Denn der hat keineswegs vor, die nächsten 20 Jahre hinter Gittern zu verbringen. Er will abhauen und dafür kann er JRs Hilfe brauchen. In der Zwischenzeit lernt JR von seinem Beschützer viel Nützliches. Draußen wartet nämlich fette Beute, sie muss nur fachgerecht abgeräumt werden. Allerdings kommen Gier und Verrat auch schnell ins Spiel, wenn es um richtig viel Kohle geht …



n.1080p.mkv
Format                                   : Matroska
Format version                           : Version 2
File size                                : 4.57 GiB
Duration                                 : 1h 48mn
Overall bit rate                         : 6 009 Kbps
Writing application                      : mkvmerge v6.6.0 ('The Edge Of The In Between') built on Dec 1 2013 17:55:00
Writing library                          : libebml v1.3.0 + libmatroska v1.4.1

Video
ID                                       : 1
Format                                   : AVC
Format/Info                              : Advanced Video Codec
Format profile                           : High@L4.1
Format settings, CABAC                   : Yes
Format settings, ReFrames                : 5 frames
Codec ID                                 : V_MPEG4/ISO/AVC
Duration                                 : 1h 48mn
Bit rate                                 : 4 354 Kbps
Width                                    : 1 920 pixels
Height                                   : 800 pixels
Display aspect ratio                     : 2.40:1
Frame rate mode                          : Constant
Frame rate                               : 24.000 fps
Color space                              : YUV
Chroma subsampling                       : 4:2:0
Bit depth                                : 8 bits
Scan type                                : Progressive
Bits/(Pixel*Frame)                       : 0.118
Stream size                              : 3.31 GiB (72%)
Writing library                          : x264 core 146 r2538 121396c
Encoding settings                        : cabac=1 / ref=5 / deblock=1:-1:-1 / analyse=0x3:0x133 / me=umh / subme=7 / psy=1 / psy_rd=1.00:0.15 / mixed_ref=1 / me_range=16 / chroma_me=1 / trellis=1 / 8x8dct=1 / cqm=0 / deadzone=21,11 / fast_pskip=0 / chroma_qp_offset=-3 / threads=18 / lookahead_threads=3 / sliced_threads=0 / nr=0 / decimate=1 / interlaced=0 / bluray_compat=0 / constrained_intra=0 / bframes=3 / b_pyramid=2 / b_adapt=1 / b_bias=0 / direct=3 / weightb=1 / open_gop=0 / weightp=2 / keyint=240 / keyint_min=24 / scenecut=40 / intra_refresh=0 / rc_lookahead=50 / rc=crf / mbtree=1 / crf=20.0 / qcomp=0.60 / qpmin=10 / qpmax=51 / qpstep=4 / ip_ratio=1.40 / aq=1:1.00
Language                                 : English
Default                                  : Yes
Forced                                   : No

Audio #1
ID                                       : 2
Format                                   : DTS
Format/Info                              : Digital Theater Systems
Mode                                     : 16
Format settings, Endianness              : Big
Codec ID                                 : A_DTS
Duration                                 : 1h 48mn
Bit rate mode                            : Constant
Bit rate                                 : 768 Kbps
Channel(s)                               : 6 channels
Channel positions                        : Front: L C R, Side: L R, LFE
Sampling rate                            : 48.0 KHz
Bit depth                                : 24 bits
Compression mode                         : Lossy
Stream size                              : 598 MiB (13%)
Language                                 : German
Default                                  : Yes
Forced                                   : No

Audio #2
ID                                       : 3
Format                                   : DTS
Format/Info                              : Digital Theater Systems
Mode                                     : 16
Format settings, Endianness              : Big
Codec ID                                 : A_DTS
Duration                                 : 1h 48mn
Bit rate mode                            : Constant
Bit rate                                 : 768 Kbps
Channel(s)                               : 6 channels
Channel positions                        : Front: L C R, Side: L R, LFE
Sampling rate                            : 48.0 KHz
Bit depth                                : 24 bits
Compression mode                         : Lossy
Stream size                              : 598 MiB (13%)
Language                                 : English
Default                                  : No
Forced                                   : No

Text
ID                                       : 4
Format                                   : UTF-8
Codec ID                                 : S_TEXT/UTF8
Codec ID/Info                            : UTF-8 Plain Text
Language                                 : German
Default                                  : Yes
Forced                                   : Yes


Download:
Share Online Share OnlineShare OnlineShare Online
 

Kommentare