DNS SERVER AENDERNum der staatlichen Zensur zu umgehen. Sollten wir von eurem Provider geseprrt werden, nutzt den TOR BROWSER oder ändert euren DNS SERVER.

Filmwünsche können bei uns im Forum abgegeben werden

Wir Speichern Nicht




 
 
 
Top Releases
Lady.Bird.2017.MULTI.COMPLET...
Set.It.Up.2018.German.Dubbed...
Set.It.Up.2018.German.Dubbed...
Shape.of.Water.Das.Fluestern...
Der.andere.Liebhaber.2017.Ge...
It.Comes.at.Night.2017.Germa...
Marshall.2017.German.DL.AC3D...
Lady.Bird.2017.German.1080p....
Lady.Bird.2017.German.DTS.DL...
Lady.Bird.2017.German.DTS.DL...

Cinedubs
Tomb.Raider.2018.3D.HSBS.Ger...
Tomb.Raider.2018.3D.HOU.Germ...
Pacific.Rim.2.Uprising.3D.HO...
Pacific.Rim.2.Uprising.3D.HS...
Pacific.Rim.2.Uprising.Germa...
Pacific.Rim.2.Uprising.Germa...
Pacific.Rim.2.Uprising.Germa...
Unsane.Ausgeliefert.German.D...
Unsane.Ausgeliefert.German.D...
Sherlock.Gnomes.2018.German....

Neuerscheinungen 2017-18
Yellowstone.Nationalpark.201...
The.Patriot.2000.COMPLETE.UH...
Cherry.2000.1987.COMPLETE.BL...
Saturn.3.1980.MULTi.COMPLETE...
True.Confessions.1981.MULTi....
Die.Geier.warten.schon.Showd...
Sturmfahrt.nach.Alaska.The.W...
Juggernaut.1974.MULTi.COMPLE...
Das.Verfahren.ist.eingestell...
Bullet.Head.2017.German.DTS....

XXX
Oldtimers.Still.Hot.And.Wet....
NewSensations.18.05.30.Cheri...
MofosBSides.18.05.27.Gia.Lov...
TrenchCoatX.17.10.19.Lily.La...
Masturbating.Glamour.Dolls.2...
MeloneChallenge.18.05.26.Wen...
TrenchCoatX.17.09.12.Ella.No...
MetArtX.18.05.29.Riley.Anne....
MassageRooms.18.05.30.Darcia...
MatureNL.18.05.24.Bella.S.XX...
LezCuties.18.05.31.Cherry.Ki...
Oldtimers.Still.Hot.And.Wet....
MeloneChallenge.18.05.29.Wen...
Oldtimers.Still.Hot.And.Wet....
Lustery.E114.Sasha.And.Lesha...
MetArtX.18.05.27.Alexis.Crys...
TrenchCoatX.17.10.08.April.O...
Oldtimers.Still.Hot.And.Wet....
TrenchCoatX.17.09.22.Veronic...
MomKnowsBest.18.05.30.Bridge...

3D
Zombies.Ueberlebe.die.Untote...
Der.Dschungel.Der.Zauber.ein...
Penthouse.Presents.Sexy.Sing...
The.LEGO.Ninjago.Movie.3D.20...
Zombies.Ueberlebe.die.Untote...
Norwegen.3D.2013.GERMAN.DL.D...
Norwegen.3D.2013.GERMAN.DOKU...
Jumanji.Willkommen.im.Dschun...
Jumanji.Welcome.To.The.Jungl...
Abraham.Lincoln.Vampire.Hunt...
Norwegen.3D.2013.MULTi.COMPL...
Star.Wars.Episode.VIII.Die.l...
Star.Wars.Episode.VIII.Die.l...
Star.Wars.Episode.VIII.Die.l...
Jumanji.Welcome.To.The.Jungl...

Old_Stuff
Weissensee.S03.2015.GERMAN.C...
Weissensee.S01+S02.2010.GERM...
Die.Unglaublichen.-.The.Incr...
Der.grosse.Trick.1978.German...
Sully.2016.MULTi.COMPLETE.BL...
Tremors.3.Die.neue.Brut.2001...
Die.Indianer.von.Cleveland.2...
Dealt.2017.1080p.AMZN.WEB-DL...
Dealt.2017.720p.AMZN.WEB-DL....
Roter.Staub.aka.The.Brave.On...
Roter.Staub.aka.The.Brave.On...
Magic.in.the.Moonlight.2014....
The.LEGO.Ninjago.Movie.2017....
Zeit.der.Zaertlichkeit.1983....
Zeit.der.Zaertlichkeit.1983....

Filme
Suicide.Squad.2016.EXTENDED....
Der.Patriot.2000.German.DL.2...
MotoGP.Moto2.Moto3.Saison.20...
MotoGP.Moto2.Moto3.Saison.20...
South.Central.-.In.den.Stras...
Critical.Condition.1987.Germ...
Wut.im.Bauch.aka.Over.the.Ed...
Toedliches.Vertrauen.2001.Ge...
Duesenjaeger.1957.German.DL....
Abrechnung.in.Shanghai.1941....
The.Frankenstein.Chronicles....
Stuermische.Ernte.2016.GERMA...
Alarm.fuer.Cobra.11.S41D01.G...
Der.Typ.mit.dem.irren.Blick....
Der.Buschpilot.-.LAfricain.U...
Dirty.Grandpa.2016.German.Du...
Dirty.Grandpa.2016.German.Du...
Wings.Of.Freedom.Auf.Adlers....
Die.Schreckenskammer.des.Dr....
Die.Schreckenskammer.des.Dr....
A.Chorus.Line.1985.German.AC...
Wolf.Creek.S01.COMPLETE.Germ...
Wolf.Creek.S01.COMPLETE.Germ...
The.Flash.2014.S04.GERMAN.72...

 
 
Duesenjaeger.1957.German.DL.1080p.Bluray.x264-LizardSquad
Jahr: 1957
Genre: Action, Drama
Sprache: Deutsch DTS | Englisch DTS
Laufzeit: 1h 52mn
Bitrate: 11.1 Mbps
Format: MKV
Größe: 8.75 GiB
Release:

Beschreibung:

Air Force Colonel Shannon (John Wayne) hat eine pikante Mission: Er soll die russische Pilotin Anna (Janet Leigh) überwachen, die samt Düsenjäger aus der UdSSR geflohen ist. Sie steht im Verdacht, für den KGB geheime Informationen über das US-Militär auszuspionieren. Doch das ungleiche Paar verliebt sich und flieht gemeinsam in die Sowjetunion. Die Russen jedoch setzen Shannon unter Drogen um geheime Informationen zu erhalten. Anna stielt daraufhin einen Kampf-Jet und fliegt, von sowjetischen Piloten durch die Wolken gehetzt, in einer atemberaubenden Jagd wieder zurück in die USA. Erst sieben Jahre nach Ende der Dreharbeiten kam „Düsenjäger“ in die Kinos. Der Grund: Der Produzent Howard Hughes, Realvorbild für den Film „Aviator“, war mit den Schnittfassungen von Josef von Sternberg nicht zufrieden, so dass der Film über diesen langen Zeitraum immer wieder überarbeiten werden musste. „Düsenjäger“ ist der letzte Film des Regie-Titanen Josef von Sternberg („Der Blaue Engel“, „Shanghai-Express“) und dem Produzenten Howard Hughes („Hell’s Angels“, „Scarface“). Lediglich Drehbuchautor Jules Furthman drehte noch einen weiteren Film, ebenfalls mit John Wayne in der Hauptrolle: „Rio Bravo“.



Complete name                            : duesenjaeger.1957.german.dl.1080p.bluray.x264-lizardsquad.mkv
Format                                   : Matroska
Format version                           : Version 2
File size                                : 8.75 GiB
Duration                                 : 1h 52mn
Overall bit rate                         : 11.1 Mbps
Writing application                      : mkvmerge v6.6.0 ('The Edge Of The In Between') built on Dec 1 2013 17:55:00
Writing library                          : libebml v1.3.0 + libmatroska v1.4.1

Video
ID                                       : 1
Format                                   : AVC
Format/Info                              : Advanced Video Codec
Format profile                           : High@L4.1
Format settings, CABAC                   : Yes
Format settings, ReFrames                : 4 frames
Codec ID                                 : V_MPEG4/ISO/AVC
Duration                                 : 1h 52mn
Bit rate                                 : 10.2 Mbps
Width                                    : 1 920 pixels
Height                                   : 1 032 pixels
Display aspect ratio                     : 1.85:1
Frame rate mode                          : Constant
Frame rate                               : 23.976 fps
Color space                              : YUV
Chroma subsampling                       : 4:2:0
Bit depth                                : 8 bits
Scan type                                : Progressive
Bits/(Pixel*Frame)                       : 0.215
Stream size                              : 7.87 GiB (90%)
Writing library                          : x264 core 155 r2901 7d0ff22
Encoding settings                        : cabac=1 / ref=4 / deblock=1:-3:-3 / analyse=0x3:0x133 / me=umh / subme=7 / psy=1 / psy_rd=1.00:0.15 / mixed_ref=1 / me_range=16 / chroma_me=1 / trellis=1 / 8x8dct=1 / cqm=0 / deadzone=21,11 / fast_pskip=0 / chroma_qp_offset=-3 / threads=32 / lookahead_threads=5 / sliced_threads=0 / nr=0 / decimate=1 / interlaced=0 / bluray_compat=0 / constrained_intra=0 / bframes=3 / b_pyramid=2 / b_adapt=2 / b_bias=0 / direct=3 / weightb=1 / open_gop=0 / weightp=2 / keyint=240 / keyint_min=24 / scenecut=40 / intra_refresh=0 / rc_lookahead=40 / rc=2pass / mbtree=1 / bitrate=10225 / ratetol=1.0 / qcomp=0.60 / qpmin=0 / qpmax=69 / qpstep=4 / cplxblur=20.0 / qblur=0.5 / ip_ratio=1.40 / aq=1:1.00
Language                                 : English
Default                                  : Yes
Forced                                   : No

Audio #1
ID                                       : 2
Format                                   : DTS
Format/Info                              : Digital Theater Systems
Mode                                     : 16
Format settings, Endianness              : Big
Codec ID                                 : A_DTS
Duration                                 : 1h 52mn
Bit rate mode                            : Constant
Bit rate                                 : 447 Kbps
Channel(s)                               : 2 channels
Channel positions                        : Front: L R
Sampling rate                            : 48.0 KHz
Bit depth                                : 24 bits
Compression mode                         : Lossy
Stream size                              : 360 MiB (4%)
Language                                 : German
Default                                  : Yes
Forced                                   : No

Audio #2
ID                                       : 3
Format                                   : DTS
Format/Info                              : Digital Theater Systems
Mode                                     : 16
Format settings, Endianness              : Big
Codec ID                                 : A_DTS
Duration                                 : 1h 52mn
Bit rate mode                            : Constant
Bit rate                                 : 447 Kbps
Channel(s)                               : 2 channels
Channel positions                        : Front: L R
Sampling rate                            : 48.0 KHz
Bit depth                                : 24 bits
Compression mode                         : Lossy
Stream size                              : 360 MiB (4%)
Language                                 : English
Default                                  : Yes
Forced                                   : No


Download:
Share Online Share OnlineShare OnlineShare Online
 

Kommentare